Жизнь впереди (Карен Оганесян) [2017, комедия, WEB-DLRip-AVC]

 
 Статистика раздачи 
Размер: 1.39 ГБ   |  Зарегистрирован: 01 дек 2017, 09:16   |   .torrent скачан: 0 раз
Сидеров: 1  [ 0 байт/сек ]     Личеров: 0  [ 0 байт/сек ]  
  

Жизнь впереди (Карен Оганесян) [2017, комедия, WEB-DLRip-AVC]

Сообщение Nakazhu » 01 дек 2017, 09:16

Жизнь впереди

Жанр: комедия
Год выпуска: 2017
Продолжительность: 01:25:05
Навигация по главам: есть
Режиссер: Карен Оганесян
В ролях: Светлана Ходченкова, Александр Паль, Павел Прилучный, Артур Смольянинов, Денис Шведов, Егор Корешков, Ольга Медынич, Максим Виторган, Валерия Кожевникова, Юлия Александрова, Лиза Мартинес, Сергей Бурунов
Описание: 11-й «Б» впервые собирается вместе через 15 лет после выпуска, и эта встреча для одноклассников - удивительная возможность на короткое время вернуться в прошлое. Старые секреты и личные счеты, обиды и первая любовь оборачиваются водоворотом страстей.

Качество: WEB-DLRip-AVC (исходник - ZHIZN_VPEREDI_WEB_DL_1080p-BLUEBIRD)
Формат видео: MKV
Видео: x264, 1024x576 (16:9) 24 fps, ~1906 kbps, 0.135 bit/pixel
Аудио: 48 kHz, AC3 Dolby Digital, 5.1 (Front: L C R, Side: L R, LFE) ch, ~384 kbps
Format : Matroska
Format version : Version 4 / Version 2
File size : 1.39 GiB
Duration : 1 h 25 min
Overall bit rate : 2 337 kb/s
Movie name : Жизнь впереди (2017) :: AFM ::
Encoded date : UTC 2017-12-01 05:50:12
Writing application : mkvmerge v8.3.0 ('Over the Horizon') 32bit
Writing library : libebml v1.3.1 + libmatroska v1.4.2
Video
ID : 1
Format : AVC
Format/Info : Advanced Video Codec
Format profile : [email protected]
Format settings, CABAC : Yes
Format settings, ReFrames : 12 frames
Codec ID : V_MPEG4/ISO/AVC
Duration : 1 h 25 min
Bit rate : 1 906 kb/s
Width : 1 024 pixels
Height : 576 pixels
Display aspect ratio : 16:9
Frame rate mode : Constant
Frame rate : 24.000 FPS
Color space : YUV
Chroma subsampling : 4:2:0
Bit depth : 8 bits
Scan type : Progressive
Bits/(Pixel*Frame) : 0.135
Stream size : 1.13 GiB (82%)
Title : WEB-DLRip by AFM
Writing library : x264 core 152 r2851+45 9658d1a 7mod [[email protected] X86_64]
Encoding settings : cabac=1 / ref=12 / deblock=1:-2:-2 / analyse=0x3:0x133 / me=umh / subme=10 / psy=1 / fade_compensate=0.00 / psy_rd=1.00:0.00 / mixed_ref=1 / me_range=32 / chroma_me=0 / trellis=2 / 8x8dct=1 / cqm=0 / deadzone=21,11 / fast_pskip=0 / chroma_qp_offset=-2 / threads=6 / lookahead_threads=1 / sliced_threads=0 / nr=0 / decimate=1 / interlaced=0 / bluray_compat=0 / constrained_intra=0 / fgo=0 / bframes=12 / b_pyramid=2 / b_adapt=2 / b_bias=0 / direct=1 / weightb=1 / open_gop=0 / weightp=2 / keyint=240 / keyint_min=23 / scenecut=40 / intra_refresh=0 / rc_lookahead=90 / rc=crf / mbtree=0 / crf=18.9000 / qcomp=0.65 / qpmin=0:0:0 / qpmax=69:69:69 / qpstep=4 / vbv_maxrate=50000 / vbv_bufsize=62500 / crf_max=0.0 / nal_hrd=none / filler=0 / ip_ratio=1.35 / pb_ratio=1.20 / aq=3:0.85 / aq-sensitivity=10.00 / aq-factor=1.00:1.00:1.00 / aq2=0 / aq3=0 / zones=119107,122529,q=30
Language : Russian
Default : Yes
Forced : No
Audio
ID : 2
Format : AC-3
Format/Info : Audio Coding 3
Mode extension : CM (complete main)
Format settings, Endianness : Big
Codec ID : A_AC3
Duration : 1 h 25 min
Bit rate mode : Constant
Bit rate : 384 kb/s
Channel(s) : 6 channels
Channel positions : Front: L C R, Side: L R, LFE
Sampling rate : 48.0 kHz
Frame rate : 31.250 FPS (1536 spf)
Compression mode : Lossy
Stream size : 234 MiB (16%)
Title : AC3 5.1 ~384 kbps
Language : Russian
Default : Yes
Forced : No
Menu
00:00:00.000 : en:Глава 1
00:05:48.375 : en:Глава 2
00:13:01.208 : en:Глава 3
00:19:47.874 : en:Глава 4
00:28:41.915 : en:Глава 5
00:36:57.456 : en:Глава 6
00:42:39.081 : en:Глава 7
00:49:04.789 : en:Глава 8
00:53:59.455 : en:Глава 9
01:01:06.455 : en:Глава 10
01:07:50.330 : en:Глава 11
01:14:56.205 : en:Глава 12
x264 [info]: frame I:843 Avg QP:16.66 size: 67890
x264 [info]: frame P:28617 Avg QP:18.15 size: 21056
x264 [info]: frame B:93069 Avg QP:20.47 size: 6289
x264 [info]: consecutive B-frames: 1.0% 1.4% 2.5% 67.8% 7.0% 15.1% 1.4% 2.2% 0.2% 0.2% 0.1% 0.3% 0.8%
x264 [info]: mb I I16..4: 5.4% 72.6% 22.0%
x264 [info]: mb P I16..4: 0.6% 5.3% 1.0% P16..4: 45.1% 23.0% 17.5% 0.6% 0.2% skip: 6.6%
x264 [info]: mb B I16..4: 0.0% 0.4% 0.1% B16..8: 38.5% 9.7% 2.4% direct: 4.7% skip:44.1% L0:38.3% L1:47.7% BI:14.0%
x264 [info]: 8x8 transform intra:74.4% inter:59.6%
x264 [info]: coded y,uvDC,uvAC intra: 85.9% 84.6% 64.6% inter: 17.1% 14.7% 3.6%
x264 [info]: i16 v,h,dc,p: 40% 15% 10% 35%
x264 [info]: i8 v,h,dc,ddl,ddr,vr,hd,vl,hu: 13% 10% 6% 9% 12% 13% 12% 12% 13%
x264 [info]: i4 v,h,dc,ddl,ddr,vr,hd,vl,hu: 13% 9% 3% 9% 14% 14% 13% 11% 13%
x264 [info]: i8c dc,h,v,p: 42% 22% 20% 16%
x264 [info]: Weighted P-Frames: Y:97.9% UV:1.1%
x264 [info]: ref P L0: 50.4% 9.4% 17.2% 5.3% 4.6% 3.1% 3.0% 1.5% 1.6% 1.3% 1.4% 1.3% 0.0% 0.0%
x264 [info]: ref B L0: 79.6% 9.8% 4.1% 1.9% 1.3% 1.1% 0.8% 0.5% 0.5% 0.3% 0.2%
x264 [info]: ref B L1: 95.6% 4.4%
x264 [info]: kb/s:1951.00
 
Не забывайте говорить Спасибо. Не уходите с раздачи!   
Торрент: Зарегистрирован [01 дек 2017, 09:16] Для скачивания .torrent
необходима регистрация
Или скачать с помощью
MediaGet
Статус:
Проверен
 
.torrent скачан: 0 раз
Хэш: 6d703fd1b5d52fe4357f1e0db13d243469e92679
Размер: 1.39 ГБ (1 491 226 587 байт)
Стать Автором раздачи
 
 
Раздал: 0 байт
Скачал: 0 байт
Ратио: Inf.
Сообщения: 399188
Зарегистрирован: 17 апр 2014, 13:57


  • Похожие торренты
    Ответы
    Просмотры
    Последнее сообщение

Вернуться в Отечественное кино

Ресурс не предоставляет электронные версии произведений, а занимается лишь коллекционированием и каталогизацией ссылок, присылаемых и публикуемых на форуме нашими читателями. Если вы являетесь правообладателем какого-либо представленного материала и не желаете чтобы ссылка на него находилась в нашем каталоге, свяжитесь с нами и мы незамедлительно удалим её. Файлы для обмена на трекере предоставлены пользователями сайта, и администрация не несёт ответственности за их содержание. Просьба не заливать файлы, защищенные авторскими правами, а также файлы нелегального содержания!
cron