Как Витька Чеснок вез Леху Штыря в дом инвалидов (2017) BDRip-AVC от ExKinoRay | Лицензия

 
 Статистика раздачи 
Размер: 1.71 ГБ   |  Зарегистрирован: 15 янв 2018, 02:40   |   .torrent скачан: 0 раз
Сидеров: 1  [ 0 байт/сек ]     Личеров: 0  [ 0 байт/сек ]  
  

Как Витька Чеснок вез Леху Штыря в дом инвалидов (2017) BDRip-AVC от ExKinoRay | Лицензия

Сообщение Lester » 15 янв 2018, 02:41

Информация о фильме

Оригинальное название: Как Витька Чеснок вез Леху Штыря в дом инвалидов
Год выпуска: 2017
Жанр: Драма, комедия, криминал
Выпущено: Россия, Продюсерский центр «ВГИК-Дебют»
Режиссер: Александр Хант
В ролях: Алексей Серебряков, Евгений Ткачук, Ольга Лапшина, Роман Шаляпин, Наталия Вдовина, Алина Насибуллина, Сергей Букреев, Яна Сексте, Дмитрий Архангельский, Александра Велескевич, Михаил Тройник, Ксения Орлова, Георгий Кудренко, Ольга Воронина, Андрей Смирнов (I), Константин Гацалов, Ольга Озоллапиня
О фильме: Картина расскажет о 27-летнем Витьке Чесноке, парне с детдомовским прошлым, который мечтает сбежать от «мешающих» ему жить жены и сына. Недолюбленный в детстве и очерствевший сердцем Витька Чеснок встречает своего отца-уголовника, а теперь еще и калеку. Витька решает отвезти отца в дом инвалидов, не подозревая, какие приключения и опасности ждут их по дороге.

Формат: MKV
Качество: BDRip-AVC (исх. Garlic.2017.BDRemux.(1080p).OlLanDGroup)
Видео: MPEG-4 AVC, 1024x576 (16:9), 24.000 fps, ~2281 kbps avg, 0.161 bit/pixel
Аудио: 48 kHz, AC3 Dolby Digital, 5.1 ch, ~448 kbps
Язык: Русский
Озвучивание - (Лицензия)
Сохранены оригинальные чаптеры как на Blu-Ray.
x264 [info]: frame I:858 Avg QP:15.84 size: 94836
x264 [info]: frame P:28774 Avg QP:19.44 size: 26008
x264 [info]: frame B:99660 Avg QP:20.91 size: 7071
------------------------------------------------------
General
Unique ID : 233530509385271812450391727780124129241 (0xAFB057107C79B75A953F1FED273B77D9)
Complete name : D:Garlic.2017.BDRip.AVC.ExKinoRay.mkv
Format : Matroska
Format version : Version 2
File size : 1.71 GiB
Duration : 1 h 29 min
Overall bit rate : 2 728 kb/s
Movie name : Как Витька Чеснок вез Леху Штыря в дом инвалидов (2017) from ExKinoRay
Encoded date : UTC 2018-01-14 22:11:55
Writing application : mkvmerge v5.6.0 ('Kenya Kane') built on May 27 2012 16:44:04
Writing library : libebml v1.2.3 + libmatroska v1.3.0

Video
ID : 1
Format : AVC
Format/Info : Advanced Video Codec
Format profile : [email protected]
Format settings, CABAC : Yes
Format settings, ReFrames : 13 frames
Codec ID : V_MPEG4/ISO/AVC
Duration : 1 h 29 min
Bit rate : 2 281 kb/s
Width : 1 024 pixels
Height : 576 pixels
Display aspect ratio : 16:9
Frame rate mode : Constant
Frame rate : 24.000 FPS
Color space : YUV
Chroma subsampling : 4:2:0
Bit depth : 8 bits
Scan type : Progressive
Bits/(Pixel*Frame) : 0.161
Stream size : 1.40 GiB (82%)
Title : Enigma
Writing library : x264 core 152 r2851 ba24899
Encoding settings : cabac=1 / ref=13 / deblock=1:-2:-2 / analyse=0x3:0x113 / me=umh / subme=10 / psy=1 / psy_rd=1.00:0.05 / mixed_ref=1 / me_range=32 / chroma_me=1 / trellis=2 / 8x8dct=1 / cqm=0 / deadzone=21,11 / fast_pskip=0 / chroma_qp_offset=-3 / threads=12 / lookahead_threads=3 / sliced_threads=0 / nr=0 / decimate=0 / interlaced=0 / bluray_compat=0 / constrained_intra=0 / bframes=10 / b_pyramid=2 / b_adapt=2 / b_bias=0 / direct=3 / weightb=1 / open_gop=0 / weightp=2 / keyint=240 / keyint_min=23 / scenecut=40 / intra_refresh=0 / rc_lookahead=40 / rc=2pass / mbtree=0 / bitrate=2281 / ratetol=1.0 / qcomp=0.60 / qpmin=0 / qpmax=51 / qpstep=4 / cplxblur=20.0 / qblur=0.5 / vbv_maxrate=50000 / vbv_bufsize=62500 / nal_hrd=none / filler=0 / ip_ratio=1.40 / pb_ratio=1.30 / aq=1:1.00
Language : English
Default : Yes
Forced : No
Color range : Limited
Color primaries : BT.709
Transfer characteristics : BT.709
Matrix coefficients : BT.709

Audio
ID : 2
Format : AC-3
Format/Info : Audio Coding 3
Mode extension : CM (complete main)
Format settings, Endianness : Big
Codec ID : A_AC3
Duration : 1 h 29 min
Bit rate mode : Constant
Bit rate : 448 kb/s
Channel(s) : 6 channels
Channel positions : Front: L C R, Side: L R, LFE
Sampling rate : 48.0 kHz
Frame rate : 31.250 FPS (1536 spf)
Compression mode : Lossy
Stream size : 288 MiB (16%)
Language : Russian
Default : Yes
Forced : No

Menu
00:00:00.000 : ru:Chapter 01
00:00:19.375 : ru:Chapter 02
00:10:09.083 : ru:Chapter 03
00:23:03.750 : ru:Chapter 04
00:34:10.500 : ru:Chapter 05
00:44:36.250 : ru:Chapter 06
00:54:35.166 : ru:Chapter 07
01:07:18.916 : ru:Chapter 08
01:16:00.166 : ru:Chapter 09




Релиз от:

Автор релиза:
 
Не забывайте говорить Спасибо. Не уходите с раздачи!   
Торрент: Зарегистрирован [15 янв 2018, 02:40] Для скачивания .torrent
необходима регистрация
Или скачать с помощью
MediaGet
Статус:
Проверен
 
.torrent скачан: 0 раз
Хэш: e69b8070f7853bfe41f63c3c6922f3994ece67db
Размер: 1.71 ГБ (1 837 211 703 байт)
Стать Автором раздачи
 
 
Раздал: 100 ГБ
Скачал: 0 байт
Ратио: Seed.
Сообщения: 111243
Зарегистрирован: 09 апр 2015, 23:00


  • Похожие торренты
    Ответы
    Просмотры
    Последнее сообщение

Вернуться в Отечественное кино

Ресурс не предоставляет электронные версии произведений, а занимается лишь коллекционированием и каталогизацией ссылок, присылаемых и публикуемых на форуме нашими читателями. Если вы являетесь правообладателем какого-либо представленного материала и не желаете чтобы ссылка на него находилась в нашем каталоге, свяжитесь с нами и мы незамедлительно удалим её. Файлы для обмена на трекере предоставлены пользователями сайта, и администрация не несёт ответственности за их содержание. Просьба не заливать файлы, защищенные авторскими правами, а также файлы нелегального содержания!
cron