Ёлки новые (2017) WEB-DLRip-AVC от ExKinoRay

 
 Статистика раздачи 
Размер: 1.49 ГБ   |  Зарегистрирован: 23 янв 2018, 07:25   |   .torrent скачан: 101 раз
Сидеров: 88  [ 0 байт/сек ]     Личеров: 82  [ 0 байт/сек ]  
  

Ёлки новые (2017) WEB-DLRip-AVC от ExKinoRay

Сообщение Lester » 23 янв 2018, 07:25

Информация о фильме
Название: Ёлки новые
Год выпуска: 2017
Жанр: Комедия, мелодрама
Режиссер: Жора Крыжовников, Дмитрий Киселёв, Александр Карпиловский
В ролях: Иван Ургант, Сергей Светлаков, Дмитрий Нагиев, Юлия Александрова, Антон Богданов, Валентина Мазунина, Елена Яковлева, Сергей Пускепалис, Екатерина Климова, Андрей Бурковский

Описание:
В декабре 2017 будет жарко! Дружба Жени и Бори едва не сгорит в огне семейного скандала; глубоко беременная Снегурочка отправится в Одиссею по нижегородским семьям; отчаянная Галя из Новосибирска пойдет на все, чтобы провести ночь с любимым врачом; экстремальный поход в лес за елкой станет проверкой на прочность для юного хипстера из Тюмени и его потенциального отчима. Новые и хорошо знакомые герои «Ёлок» влюбляются, ссорятся и мирятся, совершают геройские поступки и попадают впросак, лишь бы найти на Новый год настоящую родственную душу, как один смелый мальчик из Хабаровска, сбежавший в поисках новой мамы в Москву. И помочь им может только чудо… или вся страна!



Страна: Россия
Студия: Базелевс Продакшн
Продолжительность: 01:25:39
Язык: Русский

Файл
Формат: MKV
Качество: WEB-DLRip-AVC
Видео: MPEG-4 AVC, 1024x426 (2.40:1), 24.000 fps, ~2112 kbps avg, 0.202 bit/pixel
Звук: AC3, 48.0 KHz, 2.0 ch, 384 kbps

General
Unique ID : 192524552585563313978370927709271571225 (0x90D6E14D4757D99FB9159D6535233B19)
Complete name : D:Elki.novie.2017.O.WEB-DLRip.AVC.ExKinoRay.mkv
Format : Matroska
Format version : Version 2
File size : 1.49 GiB
Duration : 1 h 25 min
Overall bit rate : 2 496 kb/s
Movie name : Ёлки новые (2017) from ExKinoRay
Encoded date : UTC 2018-01-23 02:17:46
Writing application : mkvmerge v5.6.0 ('Kenya Kane') built on May 27 2012 16:44:04
Writing library : libebml v1.2.3 + libmatroska v1.3.0

Video
ID : 1
Format : AVC
Format/Info : Advanced Video Codec
Format profile : [email protected]
Format settings, CABAC : Yes
Format settings, ReFrames : 11 frames
Codec ID : V_MPEG4/ISO/AVC
Duration : 1 h 25 min
Bit rate : 2 112 kb/s
Width : 1 024 pixels
Height : 426 pixels
Display aspect ratio : 2.40:1
Frame rate mode : Constant
Frame rate : 24.000 FPS
Color space : YUV
Chroma subsampling : 4:2:0
Bit depth : 8 bits
Scan type : Progressive
Bits/(Pixel*Frame) : 0.202
Stream size : 1.23 GiB (83%)
Title : Enigma
Writing library : x264 core 152 r2851 ba24899
Encoding settings : cabac=1 / ref=11 / deblock=1:-2:-2 / analyse=0x3:0x133 / me=umh / subme=10 / psy=1 / psy_rd=1.00:0.05 / mixed_ref=1 / me_range=32 / chroma_me=1 / trellis=2 / 8x8dct=1 / cqm=0 / deadzone=21,11 / fast_pskip=0 / chroma_qp_offset=-3 / threads=12 / lookahead_threads=3 / sliced_threads=0 / nr=0 / decimate=0 / interlaced=0 / bluray_compat=0 / constrained_intra=0 / bframes=10 / b_pyramid=2 / b_adapt=2 / b_bias=0 / direct=3 / weightb=1 / open_gop=0 / weightp=2 / keyint=240 / keyint_min=24 / scenecut=40 / intra_refresh=0 / rc_lookahead=40 / rc=2pass / mbtree=0 / bitrate=2112 / ratetol=1.0 / qcomp=0.60 / qpmin=0 / qpmax=51 / qpstep=4 / cplxblur=20.0 / qblur=0.5 / vbv_maxrate=50000 / vbv_bufsize=62500 / nal_hrd=none / filler=0 / ip_ratio=1.40 / pb_ratio=1.30 / aq=1:1.00
Language : English
Default : Yes
Forced : No
Color range : Limited
Color primaries : BT.709
Transfer characteristics : BT.709
Matrix coefficients : BT.709

Audio
ID : 2
Format : AC-3
Format/Info : Audio Coding 3
Mode extension : CM (complete main)
Format settings, Endianness : Big
Codec ID : A_AC3
Duration : 1 h 25 min
Bit rate mode : Constant
Bit rate : 384 kb/s
Channel(s) : 2 channels
Channel positions : Front: L R
Sampling rate : 48.0 kHz
Frame rate : 31.250 FPS (1536 spf)
Compression mode : Lossy
Stream size : 235 MiB (15%)
Language : Russian
Default : Yes
Forced : No





Релиз от:

Автор релиза:
 
Не забывайте говорить Спасибо. Не уходите с раздачи!   
Торрент: Зарегистрирован [23 янв 2018, 07:25] Для скачивания .torrent
необходима регистрация
Или скачать с помощью
MediaGet
Статус:
Проверен
 
.torrent скачан: 101 раз
Хэш: 10fb6324dce57e5045ea518f7e39da73146c266a
Размер: 1.49 ГБ (1 603 409 633 байт)
Стать Автором раздачи
 
 
Раздал: 100 ГБ
Скачал: 0 байт
Ратио: Seed.
Сообщения: 111207
Зарегистрирован: 09 апр 2015, 23:00


  • Похожие торренты
    Ответы
    Просмотры
    Последнее сообщение

Вернуться в Отечественное кино

Ресурс не предоставляет электронные версии произведений, а занимается лишь коллекционированием и каталогизацией ссылок, присылаемых и публикуемых на форуме нашими читателями. Если вы являетесь правообладателем какого-либо представленного материала и не желаете чтобы ссылка на него находилась в нашем каталоге, свяжитесь с нами и мы незамедлительно удалим её. Файлы для обмена на трекере предоставлены пользователями сайта, и администрация не несёт ответственности за их содержание. Просьба не заливать файлы, защищенные авторскими правами, а также файлы нелегального содержания!
cron