Странник (2017) WEBRip от Portablius

 
 Статистика раздачи 
Размер: 694.99 МБ   |  Зарегистрирован: 25 янв 2018, 13:53   |   .torrent скачан: 98 раз
Сидеров: 41  [ 0 байт/сек ]     Личеров: 13  [ 0 байт/сек ]  
  

Странник (2017) WEBRip от Portablius

Сообщение Lester » 25 янв 2018, 13:53

Информация о фильме
Название: Странник
Год выхода: 2017
Жанр: Драма, арт-хаус
Режиссеры: Денис Колонтай, Иван Качалин, Дмитрий Глазовский
В ролях: Иван Качалин, Денис Колонтай, Иван Степанов, Максим Дурманов, Виктор Буланкин, Дмитрий Витер, Дмитрий Глазовский, Михаил Смирнов, Маргарита Куклина

О фильме: Никто никогда не встречал Отшельника, а если и встречал, то не узнавал его в лицо. Его приезд всегда инициирует некий «принцип домино», «лавину» событий, что меняет всё до неузнаваемости. Но в этом странном месте, под названием Станция, его уже ожидают. Поиски Бога, смысла и способа жизни, себя и своего места в этом жестоком месте делают из людей Странников, тех, кто ни на миг не смыкает глаз и продолжает вечный поиск.


Страна: Россия
Студия: Творческое объединение «CineFOG»
Продолжительность: 01:25:00
Перевод: Не Требуется
Субтитры: Нет

Файл
Кодек: XviD
Качество: WEBRip
Видео: 688x384 (1.79:1), 25 fps, XviD build 73 ~1001 kbps avg, 0.15 bit/pixel
Звук: 48 kHz, MPEG Layer 3, 2 ch, ~128.00 kbps avg

General
Complete name : Strannik.2017.WEBRip.ot.Portablius.avi
Format : AVI
Format/Info : Audio Video Interleave
File size : 695 MiB
Duration : 1 h 25 min
Overall bit rate : 1 139 kb/s
Writing application : VirtualDubMod 1.5.10.3 | www.virtualdub-fr.org || (build 2550/release)
Writing library : VirtualDubMod build 2550/release

Video
ID : 0
Format : MPEG-4 Visual
Format profile : Advanced [email protected]
Format settings, BVOP : 1
Format settings, QPel : No
Format settings, GMC : No warppoints
Format settings, Matrix : Custom
Codec ID : XVID
Codec ID/Hint : XviD
Duration : 1 h 25 min
Bit rate : 1 002 kb/s
Width : 688 pixels
Height : 384 pixels
Display aspect ratio : 16:9
Frame rate : 25.000 FPS
Color space : YUV
Chroma subsampling : 4:2:0
Bit depth : 8 bits
Scan type : Progressive
Compression mode : Lossy
Bits/(Pixel*Frame) : 0.152
Stream size : 611 MiB (88%)
Writing library : XviD 73

Audio
ID : 1
Format : MPEG Audio
Format version : Version 1
Format profile : Layer 3
Codec ID : 55
Codec ID/Hint : MP3
Duration : 1 h 25 min
Bit rate mode : Constant
Bit rate : 128 kb/s
Channel(s) : 2 channels
Sampling rate : 48.0 kHz
Compression mode : Lossy
Stream size : 78.1 MiB (11%)
Alignment : Aligned on interleaves
Interleave, duration : 40 ms (1.00 video frame)
Interleave, preload duratio : 504 ms
Writing library : LAME3.99r
Encoding settings : -m s -V 4 -q 2 -lowpass 17 -b 128

 
Не забывайте говорить Спасибо. Не уходите с раздачи!   
Торрент: Зарегистрирован [25 янв 2018, 13:53] Для скачивания .torrent
необходима регистрация
Или скачать с помощью
MediaGet
Статус:
Проверен
 
.torrent скачан: 98 раз
Хэш: b0a610c873955c0481f0817203b61d507ae4e9a7
Размер: 694.99 МБ (728 750 080 байт)
Стать Автором раздачи
 
 
Раздал: 100 ГБ
Скачал: 0 байт
Ратио: Seed.
Сообщения: 113170
Зарегистрирован: 09 апр 2015, 23:00


  • Похожие торренты
    Ответы
    Просмотры
    Последнее сообщение

Вернуться в Отечественное кино

Ресурс не предоставляет электронные версии произведений, а занимается лишь коллекционированием и каталогизацией ссылок, присылаемых и публикуемых на форуме нашими читателями. Если вы являетесь правообладателем какого-либо представленного материала и не желаете чтобы ссылка на него находилась в нашем каталоге, свяжитесь с нами и мы незамедлительно удалим её. Файлы для обмена на трекере предоставлены пользователями сайта, и администрация не несёт ответственности за их содержание. Просьба не заливать файлы, защищенные авторскими правами, а также файлы нелегального содержания!
cron