Движение вверх (2017) WEBRip-AVC

 
 Статистика раздачи 
Размер: 2.19 ГБ   |  Зарегистрирован: 27 янв 2018, 22:20   |   .torrent скачан: 19275 раз
Сидеров: 2004  [ 0 байт/сек ]     Личеров: 189  [ 0 байт/сек ]  
  

Движение вверх (2017) WEBRip-AVC

Сообщение Lester » 27 янв 2018, 22:20




Информация о фильме
Название: Движение вверх
Год выпуска: 2017
Жанр: спорт, драма
Режиссёр: Антон Мегердичев

В ролях: Владимир Машков, Андрей Смоляков, Иван Колесников, Кирилл Зайцев, Джон Сэвэдж, Марат Башаров, Александра Ревенко, Виктория Толстоганова, Сергей Гармаш, Джеймс Тратас

Описание:
Есть победы, которые меняют ход истории. Победы духа, победы страны, победы всего мира. Таким триумфом стали легендарные «три секунды» — выигрыш сборной СССР по баскетболу на роковой мюнхенской Олимпиаде 1972 г. Впервые за 36 лет была повержена «непобедимая» команда США. Никто даже помыслить не мог о том, что это возможно — обыграть великолепных непогрешимых американцев на Олимпийских играх! Никто, кроме советских баскетболистов (русских и грузин, украинцев и казахов, белорусов и литовцев).

Когда проигрыш означал поражение страны, когда нужно было выходить и бороться в раскаленной обстановке из-за произошедшего теракта, великий тренер сборной СССР был готов на все, лишь бы помочь своим подопечным разбить американский миф о непотопляемой команде мечты. Ведь он знал, что создал самую сильную сборную на планете, и в начале заставил поверить в это своих игроков, а затем весь мир.



Выпущено: Россия / Студия Тритэ
Продолжительность: 02:13:50
Перевод: Не требуется
Субтитры: Русские (на иностранную речь) - вшитые

Файл
Качество: WEBRip-AVC
Видео: 1032x432 (2.40:1), 24.000 fps,~2152 kbps
Аудио: 48 kHz, AC3 Dolby Digital, 2/0 (L,R) ch, ~192 kbps





General
Unique ID : 13217860763220734705437453205082054245 (0x9F1AAD9B5498EA695DC576A6BE99E65)
Complete name : C:UsersUserDesktopДвижение вверх.2017.WEBRip_AVC.[-=DoMiNo=-].mkv
Format : Matroska
Format version : Version 4 / Version 2
File size : 2.19 GiB
Duration : 2 h 13 min
Overall bit rate : 2 347 kb/s
Movie name : Движение вверх
Deion : Есть победы, которые меняют ход истории. Победы духа, победы страны, победы всего мира. Таким триумфом стали легендарные «три секунды» — выигрыш сборной СССР по баскетболу на роковой мюнхенской Олимпиаде 1972 г. Впервые за 36 лет была повержена «непобедимая» команда США. Никто даже помыслить не мог о том, что это возможно — обыграть великолепных непогрешимых американцев на Олимпийских играх! Никто, кроме советских баскетболистов (русских и грузин, украинцев и казахов, белорусов и литовцев). / / Когда проигрыш означал поражение страны, когда нужно было выходить и бороться в раскаленной обстановке из-за произошедшего теракта, великий тренер сборной СССР был готов на все, лишь бы помочь своим подопечным разбить американский миф о непотопляемой команде мечты. Ведь он знал, что создал самую сильную сборную на планете, и в начале заставил поверить в это своих игроков, а затем весь мир.
Writing application : XviD4PSP 7.0.441 DAILY
Writing library : Lavf57.71.100
ErrorDetectionType : Per level 1
Attachments : poster.jpg
ACTORS : Владимир Машков, Андрей Смоляков, Иван Колесников, Кирилл Зайцев, Джон Сэвэдж, Марат Башаров, Александра Ревенко, Виктория Толстоганова, Сергей Гармаш, Джеймс Тратас, Кузьма Сапрыкин, Александр Ряполов, Иракли Микава, Отар Лорткипанидзе, Егор Климович, Василий Щипицын, Тэнэ Кирсанова, Даниил Солдатов, Александр Громов, Джордан Фрай, Давид Белозеров, Иван Орлов, Ксения Яковлева, Константин Шпаков, Никита Яковлев, Наталья Курдюбова, Сергей Пинегин, Андрюс Паулавичюс, Олег Лебедев-Бовольский, Елена Скворцова, Зарина Мухитдинова, Ахмед Каримов, Сергей Кагаков, Алексей Малашкин, Александр Армер, Михаил Стародубов, Элгуджа Бурдули, Оливер Мортон, Дастин Чавиано, Казимир Лиске, Дмитрий Фрид
COUNTRY : Россия
DATE : 2017
DIRECTOR : Антон Мегердичев
ENCODING_INFO : MATROSKA,WEBM > MKV Пользовательский / H264 > X264 VBR-2P 2152kbps Пользовательский / AC3 > COPY Безопасное
GENRE : спорт, драма
HD_VIDEO : 1
IMDB_RATING : 8.00
ITUNEXTC : ru-movie|6+|150|
Language : und
MEDIA_TYPE : 9
PRODUCER : Леонид Верещагин, Антон Златопольский, Никита Михалков
RATING : 8.421
WRITER : Николай Куликов, Андрей Курейчик

Video
ID : 1
Format : AVC
Format/Info : Advanced Video Codec
Format profile : [email protected]
Format settings : CABAC / 11 Ref Frames
Format settings, CABAC : Yes
Format settings, ReFrames : 11 frames
Codec ID : V_MPEG4/ISO/AVC
Duration : 2 h 13 min
Bit rate : 2 152 kb/s
Width : 1 032 pixels
Height : 432 pixels
Display aspect ratio : 2.40:1
Frame rate mode : Constant
Frame rate : 24.000 FPS
Color space : YUV
Chroma subsampling : 4:2:0
Bit depth : 8 bits
Scan type : Progressive
Bits/(Pixel*Frame) : 0.201
Stream size : 1.97 GiB (90%)
Writing library : x264 core 155 r2901M 7d0ff22
Encoding settings : cabac=1 / ref=11 / deblock=1:-3:-3 / analyse=0x3:0x133 / me=umh / subme=11 / psy=1 / psy_rd=1.00:0.03 / mixed_ref=1 / me_range=32 / chroma_me=1 / trellis=2 / 8x8dct=1 / cqm=0 / deadzone=21,11 / fast_pskip=1 / chroma_qp_offset=-3 / threads=6 / lookahead_threads=1 / sliced_threads=0 / nr=0 / decimate=1 / interlaced=0 / bluray_compat=0 / constrained_intra=0 / bframes=12 / b_pyramid=2 / b_adapt=2 / b_bias=0 / direct=3 / weightb=1 / open_gop=0 / weightp=2 / keyint=240 / keyint_min=24 / scenecut=40 / intra_refresh=0 / rc_lookahead=60 / rc=2pass / mbtree=1 / bitrate=2152 / ratetol=1.0 / qcomp=0.60 / qpmin=0 / qpmax=69 / qpstep=4 / cplxblur=20.0 / qblur=0.5 / ip_ratio=1.40 / aq=1:1.00
Language : English
Default : Yes
Forced : No

Audio
ID : 2
Format : AC-3
Format/Info : Audio Coding 3
Codec ID : A_AC3
Duration : 2 h 13 min
Bit rate mode : Constant
Bit rate : 192 kb/s
Channel(s) : 2 channels
Channel positions : Front: L R
Sampling rate : 48.0 kHz
Frame rate : 31.250 FPS (1536 SPF)
Bit depth : 16 bits
Compression mode : Lossy
Stream size : 184 MiB (8%)
Service kind : Complete Main
Default : Yes
Forced : No


 
Не забывайте говорить Спасибо. Не уходите с раздачи!   
Торрент: Зарегистрирован [27 янв 2018, 22:20] Для скачивания .torrent
необходима регистрация
Или скачать с помощью
MediaGet
Статус:
Проверен
 
.torrent скачан: 19275 раз
Хэш: 65d332adc8e13a6f17d22dff5fc32e6bb8befc3e
Размер: 2.19 ГБ (2 356 532 580 байт)
Стать Автором раздачи
 
 
Раздал: 100 ГБ
Скачал: 0 байт
Ратио: Seed.
Сообщения: 113162
Зарегистрирован: 09 апр 2015, 23:00


  • Похожие торренты
    Ответы
    Просмотры
    Последнее сообщение

Вернуться в Отечественное кино

Ресурс не предоставляет электронные версии произведений, а занимается лишь коллекционированием и каталогизацией ссылок, присылаемых и публикуемых на форуме нашими читателями. Если вы являетесь правообладателем какого-либо представленного материала и не желаете чтобы ссылка на него находилась в нашем каталоге, свяжитесь с нами и мы незамедлительно удалим её. Файлы для обмена на трекере предоставлены пользователями сайта, и администрация не несёт ответственности за их содержание. Просьба не заливать файлы, защищенные авторскими правами, а также файлы нелегального содержания!
cron