Новогодний переполох (Кирилл Папакуль) [2017, комедия, семейный, WEB-DLRip]

 
 Статистика раздачи 
Размер: 1.45 ГБ   |  Зарегистрирован: 30 янв 2018, 03:14   |   .torrent скачан: 0 раз
Сидеров: 1  [ 0 байт/сек ]     Личеров: 0  [ 0 байт/сек ]  
  

Новогодний переполох (Кирилл Папакуль) [2017, комедия, семейный, WEB-DLRip]

Сообщение Nakazhu » 30 янв 2018, 03:14

Новогодний переполох
Жанр: комедия, семейный
Год выпуска: 2017
Продолжительность: 01:20:33
Режиссёр: Кирилл Папакуль
В ролях: Инга Оболдина, Виктория Исакова, Анна Уколова, Владимир Ильин, Данил Стеклов, Никита Кологривый, Татьяна Догилева, Ольга Бузова, Александра Бортич, Екатерина Агеева

Описание: Наверняка вы давно не играли в снежки… А в крокодила? Как ни странно, но именно этим вынуждены заниматься обитатели усадьбы Морозовых, потому что на кону отцовское наследство. И в этой нешуточной борьбе в ход идут любые средства. А средний сын Дима, неисправимый авантюрист, даже умудрился привезти с собой фиктивную семью. Только вот глава семейства, своенравный отставной генерал Георгий Иванович Морозов, даже не подозревает, что далеко не любовь к семейным традициям привела в дом всех членов семьи.

Sample
Качество видео: WEB-DLRip
Формат видео: AVI
Видео: 720x304 (2.37:1), 25 fps, XviD build 50 ~2196 kbps avg, 0.401 bit/pixel
Аудио: 48 kHz, AC3 Dolby Digital, 3/2 (L,C,R,l,r) + LFE ch, ~384 kbps
General
Complete name : D:\Новогодний переполох 2017 WEB-DLRip.avi
Format : AVI
Format/Info : Audio Video Interleave
File size : 1.45 GiB
Duration : 1h 20mn
Overall bit rate : 2 590 Kbps
Writing application : VirtualDubMod 1.5.10.2 (build 2540/release)
Writing library : VirtualDubMod build 2540/release
Video
ID : 0
Format : MPEG-4 Visual
Format profile : Advanced [email protected]
Format settings, BVOP : 1
Format settings, QPel : No
Format settings, GMC : No warppoints
Format settings, Matrix : Custom
Codec ID : XVID
Codec ID/Hint : XviD
Duration : 1h 20mn
Bit rate : 2 196 Kbps
Width : 720 pixels
Height : 304 pixels
Display aspect ratio : 2.35:1
Frame rate : 25.000 fps
Color space : YUV
Chroma subsampling : 4:2:0
Bit depth : 8 bits
Scan type : Progressive
Compression mode : Lossy
Bits/(Pixel*Frame) : 0.401
Stream size : 1.23 GiB (85%)
Writing library : XviD 73
Audio
ID : 1
Format : AC-3
Format/Info : Audio Coding 3
Mode extension : CM (complete main)
Format settings, Endianness : Big
Codec ID : 2000
Duration : 1h 20mn
Bit rate mode : Constant
Bit rate : 384 Kbps
Channel count : 6 channels
Channel positions : Front: L C R, Side: L R, LFE
Sampling rate : 48.0 KHz
Bit depth : 16 bits
Compression mode : Lossy
Stream size : 221 MiB (15%)
Alignment : Split accross interleaves
Interleave, duration : 40 ms (1.00 video frame)
Interleave, preload duration : 500 ms

 
Не забывайте говорить Спасибо. Не уходите с раздачи!   
Торрент: Зарегистрирован [30 янв 2018, 03:14] Для скачивания .torrent
необходима регистрация
Или скачать с помощью
MediaGet
Статус:
Проверен
 
.torrent скачан: 0 раз
Хэш: f15d4b1d4d6b2005790841adb7d34a5b639ab70b
Размер: 1.45 ГБ (1 561 972 736 байт)
Стать Автором раздачи
 
 
Раздал: 0 байт
Скачал: 0 байт
Ратио: Inf.
Сообщения: 399804
Зарегистрирован: 17 апр 2014, 13:57


  • Похожие торренты
    Ответы
    Просмотры
    Последнее сообщение

Вернуться в Отечественное кино

Ресурс не предоставляет электронные версии произведений, а занимается лишь коллекционированием и каталогизацией ссылок, присылаемых и публикуемых на форуме нашими читателями. Если вы являетесь правообладателем какого-либо представленного материала и не желаете чтобы ссылка на него находилась в нашем каталоге, свяжитесь с нами и мы незамедлительно удалим её. Файлы для обмена на трекере предоставлены пользователями сайта, и администрация не несёт ответственности за их содержание. Просьба не заливать файлы, защищенные авторскими правами, а также файлы нелегального содержания!
cron