Легенда о Коловрате (2017) WEB-DLRip

 
 Статистика раздачи 
Размер: 739.09 МБ   |  Зарегистрирован: 08 фев 2018, 20:43   |   .torrent скачан: 0 раз
Сидеров: 1  [ 0 байт/сек ]     Личеров: 0  [ 0 байт/сек ]  
  

Легенда о Коловрате (2017) WEB-DLRip

Сообщение graf_t » 08 фев 2018, 20:43

Информация о фильме
Название: Легенда о Коловрате
Год выпуска: 2017
Страна: Россия
Жанр: история, боевик, фэнтези

Перевод: Не требуется [Русский]
Примечание: Релиз без рекламы
Продолжительность: 01:52:56

Режиссер: Джаник Файзиев, Иван Шурховецкий
В ролях: Илья Малаков (Евпатий Коловрат), Александр Цой (Хан Батый), Александр Ильин мл. (Каркун), Юлия Хлынина (Лада), Тимофей Трибунцев (Захар), Алексей Серебряков (Князь Юрий), Игорь Савочкин (Ратмир), Полина Чернышова (Настя), Илья Антоненко (княжич Фёдор), Георгий Пицхелаури (Хостоврул), Ольга Дроздова (Аграфена), Мария Фомина (княжна Евпраксия)


Описание:
XIII век. Русь раздроблена и вот-вот падет на колени перед ханом Золотой Орды Батыем. Испепеляя города и заливая русские земли кровью, захватчики не встречают серьезного сопротивления, и лишь один воин бросает им вызов. Молодой рязанский витязь Евпатий Коловрат возглавляет отряд смельчаков, чтобы отомстить за свою любовь и за свою родину. Его отвага поразит даже Батыя, а его имя навсегда останется в памяти народа. Воин, ставший легендой. Подвиг, сохранившийся в веках.

Рейтинг:


Качество: WEB-DLRip
Формат: AVI
Видео: XviD, 688x288 (2.40:1), 780 kbps, 25 fps, 0,158 bpp
Аудио: MP3 / 2.0 / 48 kHz / 128 kbps /
Сэмпл


General
Complete name : E:Legenda.o.Kolovrate.2017.WEB-DLRip.avi
Format : AVI
Format/Info : Audio Video Interleave
File size : 739 MiB
Duration : 1 h 52 min
Overall bit rate : 915 kb/s
Writing application : VirtualDubModRus 1.5.10.2 (build 2542/release)
Writing library : VirtualDubMod build 2542/release

Video
ID : 0
Format : MPEG-4 Visual
Format profile : Advanced [email protected]
Format settings, BVOP : 2
Format settings, QPel : No
Format settings, GMC : No warppoints
Format settings, Matrix : Custom
Codec ID : XVID
Codec ID/Hint : XviD
Duration : 1 h 52 min
Bit rate : 781 kb/s
Width : 688 pixels
Height : 288 pixels
Display aspect ratio : 2.40:1
Frame rate : 25.000 FPS
Color space : YUV
Chroma subsampling : 4:2:0
Bit depth : 8 bits
Scan type : Progressive
Compression mode : Lossy
Bits/(Pixel*Frame) : 0.158
Stream size : 631 MiB (85%)
Writing library : XviD 67

Audio
ID : 1
Format : MPEG Audio
Format version : Version 1
Format profile : Layer 3
Mode : Joint stereo
Codec ID : 55
Codec ID/Hint : MP3
Duration : 1 h 52 min
Bit rate mode : Constant
Bit rate : 128 kb/s
Channel(s) : 2 channels
Sampling rate : 48.0 kHz
Compression mode : Lossy
Stream size : 103 MiB (14%)
Alignment : Aligned on interleaves
Interleave, duration : 160 ms (4.00 video frames)
Interleave, preload duration : 216 ms
Writing library : LAME3.100Є

 
Не забывайте говорить Спасибо. Не уходите с раздачи!   
Торрент: Зарегистрирован [08 фев 2018, 20:43] Для скачивания .torrent
необходима регистрация
Или скачать с помощью
MediaGet
Статус:
Проверен
 
.torrent скачан: 0 раз
Хэш: ce250139fc127c0570bc9546fb32603f1558dfed
Размер: 739.09 МБ (774 991 872 байт)
Стать Автором раздачи
 
 
Раздал: 100 ГБ
Скачал: 0 байт
Ратио: Seed.
Сообщения: 42545
Зарегистрирован: 31 мар 2015, 18:04


  • Похожие торренты
    Ответы
    Просмотры
    Последнее сообщение

Вернуться в Отечественное кино

Ресурс не предоставляет электронные версии произведений, а занимается лишь коллекционированием и каталогизацией ссылок, присылаемых и публикуемых на форуме нашими читателями. Если вы являетесь правообладателем какого-либо представленного материала и не желаете чтобы ссылка на него находилась в нашем каталоге, свяжитесь с нами и мы незамедлительно удалим её. Файлы для обмена на трекере предоставлены пользователями сайта, и администрация не несёт ответственности за их содержание. Просьба не заливать файлы, защищенные авторскими правами, а также файлы нелегального содержания!
cron