Нелюбовь (2017) BDRip 1080p от OlLanDGroup | Лицензия

 
 Статистика раздачи 
Размер: 12.73 ГБ   |  Зарегистрирован: 08 фев 2018, 20:44   |   .torrent скачан: 184 раз
Сидеров: 132  [ 0 байт/сек ]     Личеров: 4  [ 0 байт/сек ]  
  

Нелюбовь (2017) BDRip 1080p от OlLanDGroup | Лицензия

Сообщение graf_t » 08 фев 2018, 20:44

Информация о фильме

Оригинальное название: Нелюбовь
Год выпуска: 2017
Жанр: Драма
Выпущено: Россия, arte France Cinéma, Fetisoff Illusion, Les Films du Fleuve, Нон-стоп Продакшн, Senator Film Produktion GmbH, Why Not Productions
Режиссер: Андрей Звягинцев
В ролях: Марьяна Спивак, Алексей Розин, Матвей Новиков, Марина Васильева, Андрис Кейшс, Алексей Фатеев, Сергей Борисов, Наталья Потапова, Анна Гуляренко, Артем Жигулин
О фильме: 12-летний Алёша Слепцов – нелюбимый ребенок нелюбящих родителей невольно подслушал их ночной разговор. Ненавидящие друг друга мама и папа громогласно решали куда девать после развода своего единственного сына. Говорили о нем зло и равнодушно, как о неодушевленном и никому не нужном предмете, не упоминая имени, не проявляя малейшего беспокойства о его дальнейшей судьбе. В их новой жизни с другими партнёрами ему места не находилось. Росший в тотальной нелюбви и безразличии мальчик, в очередной раз убедился в своей ненужности. Утром, стремглав выбежав из дома, он исчез. О его пропаже, занятые собой родители, узнали лишь спустя сутки...

Качество: BDRip (1080p)
Видео: MPEG-4 AVC, 11342 Кбит/с, 1920x804, 25 кадр/с
Аудио: Русский (AC3, 6 ch, 640 Кбит/с), (DTS, 6 ch, 1509 Кбит/с), французский (DTS, 6 ch, 1509 Кбит/с)
Размер: 12.73 ГБ
Продолжительность: 02:01:46
Язык: Русский
Субтитры: Французские

Озвучивание - (Лицензия)
Сохранены оригинальные чаптеры как на Blu-Ray.

x264 [info]: frame I:877 Avg QP:14.32 size:232689
x264 [info]: frame P:34444 Avg QP:17.21 size: 97795
x264 [info]: frame B:147332 Avg QP:18.74 size: 45803
x264 [info]: consecutive B-frames: 1.0% 0.9% 4.7% 8.6% 11.0% 66.1% 4.4% 0.6% 0.8% 0.9% 1.1%
x264 [info]: mb I I16..4: 21.1% 68.6% 10.4%
x264 [info]: mb P I16..4: 1.5% 19.9% 1.1% P16..4: 25.6% 29.5% 12.3% 1.4% 0.1% skip: 8.7%
x264 [info]: mb B I16..4: 0.4% 5.5% 0.2% B16..8: 33.6% 16.9% 3.7% direct: 6.8% skip:33.0% L0:45.9% L1:45.3% BI: 8.7%
x264 [info]: 8x8 transform intra:88.4% inter:66.6%
x264 [info]: direct mvs spatial:98.4% temporal:1.6%
x264 [info]: coded y,uvDC,uvAC intra: 89.9% 80.9% 57.0% inter: 30.9% 23.0% 6.2%
x264 [info]: i16 v,h,dc,p: 61% 6% 15% 18%
x264 [info]: i8 v,h,dc,ddl,ddr,vr,hd,vl,hu: 9% 7% 20% 9% 11% 11% 12% 10% 12%
x264 [info]: i4 v,h,dc,ddl,ddr,vr,hd,vl,hu: 45% 6% 13% 5% 7% 7% 7% 5% 6%
x264 [info]: i8c dc,h,v,p: 44% 26% 19% 11%
x264 [info]: Weighted P-Frames: Y:1.8% UV:0.6%
x264 [info]: ref P L0: 44.5% 9.5% 24.8% 10.4% 10.3% 0.5% 0.0%
x264 [info]: ref B L0: 69.1% 21.0% 7.4% 2.5%
x264 [info]: ref B L1: 90.4% 9.6%
x264 [info]: kb/s:11300.97
Общее
Уникальный идентификатор : 234133899210515997853315534453259521538 (0xB0248C7AC93F774092D62B9491424E02)
Полное имя : D:ЗагрузкиNelyubov.2017.x264.BDRip.(1080p).OlLanDGroup.mkv
Формат : Matroska
Версия формата : Version 4 / Version 2
Размер файла : 12,7 Гбайт
Продолжительность : 2 ч. 1 м.
Общий поток : 15,0 Мбит/сек
Название фильма : Нелюбовь.2017.Rip by: ollan
Дата кодирования : UTC 2018-02-01 05:47:29
Программа кодирования : mkvmerge v6.5.0 ('Isn't she lovely') built on Oct 20 2013 12:50:05
Библиотека кодирования : libebml v1.3.0 + libmatroska v1.4.1
Attachements : Cover - Nelyubov.png

Видео
Идентификатор : 1
Формат : AVC
Формат/Информация : Advanced Video Codec
Профиль формата : [email protected]
Параметр CABAC формата : Да
Параметр ReFrames формата : 5 кадров
Идентификатор кодека : V_MPEG4/ISO/AVC
Продолжительность : 2 ч. 1 м.
Битрейт : 11,3 Мбит/сек
Ширина : 1920 пикселей
Высота : 804 пикселя
Соотношение сторон : 2,40:1
Режим частоты кадров : Постоянный
Частота кадров : 25,000 кадров/сек
Цветовое пространство : YUV
Субдискретизация насыщенности : 4:2:0
Битовая глубина : 8 бит
Тип развёртки : Прогрессивная
Бит/(Пиксели*Кадры) : 0.294
Размер потока : 9,36 Гбайт (74%)
Библиотека кодирования : x264 core 146 r2538 121396c
Настройки программы : cabac=1 / ref=5 / deblock=1:-2:-3 / analyse=0x3:0x133 / me=umh / subme=11 / psy=1 / psy_rd=0.95:0.05 / mixed_ref=1 / me_range=64 / chroma_me=1 / trellis=2 / 8x8dct=1 / cqm=0 / deadzone=21,11 / fast_pskip=0 / chroma_qp_offset=-3 / threads=12 / lookahead_threads=3 / sliced_threads=0 / nr=0 / decimate=0 / interlaced=0 / bluray_compat=0 / constrained_intra=0 / bframes=10 / b_pyramid=2 / b_adapt=2 / b_bias=0 / direct=3 / weightb=1 / open_gop=0 / weightp=2 / keyint=250 / keyint_min=25 / scenecut=40 / intra_refresh=0 / rc_lookahead=40 / rc=2pass / mbtree=0 / bitrate=11342 / ratetol=1.0 / qcomp=0.60 / qpmin=0 / qpmax=69 / qpstep=4 / cplxblur=20.0 / qblur=0.5 / vbv_maxrate=50000 / vbv_bufsize=62500 / nal_hrd=none / filler=0 / ip_ratio=1.40 / pb_ratio=1.30 / aq=1:1.00
Язык : Russian
Default : Да
Forced : Нет

Аудио #1
Идентификатор : 2
Формат : AC-3
Формат/Информация : Audio Coding 3
Расширение режима : CM (complete main)
Параметр Endianness формата : Big
Идентификатор кодека : A_AC3
Продолжительность : 2 ч. 1 м.
Вид битрейта : Постоянный
Битрейт : 640 Кбит/сек
Каналы : 6 каналов
Расположение каналов : Front: L C R, Side: L R, LFE
Частота : 48,0 КГц
Частота кадров : 31,250 кадров/сек (1536 spf)
Метод сжатия : С потерями
Размер потока : 557 Мбайт (4%)
Заголовок : Лицензия
Язык : Russian
Default : Да
Forced : Нет

Аудио #2
Идентификатор : 3
Формат : DTS
Формат/Информация : Digital Theater Systems
Режим : 16
Параметр Endianness формата : Big
Идентификатор кодека : A_DTS
Продолжительность : 2 ч. 1 м.
Вид битрейта : Постоянный
Битрейт : 1509 Кбит/сек
Каналы : 6 каналов
Расположение каналов : Front: L C R, Side: L R, LFE
Частота : 48,0 КГц
Частота кадров : 93,750 кадра/сек (512 spf)
Битовая глубина : 24 бит
Метод сжатия : С потерями
Размер потока : 1,28 Гбайт (10%)
Заголовок : Лицензия
Язык : Russian
Default : Нет
Forced : Нет

Аудио #3
Идентификатор : 4
Формат : DTS
Формат/Информация : Digital Theater Systems
Режим : 16
Параметр Endianness формата : Big
Идентификатор кодека : A_DTS
Продолжительность : 2 ч. 1 м.
Вид битрейта : Постоянный
Битрейт : 1509 Кбит/сек
Каналы : 6 каналов
Расположение каналов : Front: L C R, Side: L R, LFE
Частота : 48,0 КГц
Частота кадров : 93,750 кадра/сек (512 spf)
Битовая глубина : 24 бит
Метод сжатия : С потерями
Размер потока : 1,28 Гбайт (10%)
Язык : French
Default : Нет
Forced : Нет

Текст #1
Идентификатор : 5
Формат : UTF-8
Идентификатор кодека : S_TEXT/UTF8
Идентификатор кодека/Информация : UTF-8 Plain Text
Заголовок : Forced
Язык : French
Default : Нет
Forced : Нет

Текст #2
Идентификатор : 6
Формат : UTF-8
Идентификатор кодека : S_TEXT/UTF8
Идентификатор кодека/Информация : UTF-8 Plain Text
Заголовок : Full
Язык : French
Default : Нет
Forced : Нет

Меню
00:00:00.000 : ru:Chapter 01
00:08:58.000 : ru:Chapter 02
00:19:00.000 : ru:Chapter 03
00:27:38.240 : ru:Chapter 04
00:34:28.920 : ru:Chapter 05
00:47:27.120 : ru:Chapter 06
01:00:50.840 : ru:Chapter 07
01:09:28.200 : ru:Chapter 08
01:16:29.800 : ru:Chapter 09
01:27:02.080 : ru:Chapter 10
01:36:34.720 : ru:Chapter 11
01:45:30.640 : ru:Chapter 12
02:01:45.920 : ru:Chapter 13





Релиз от: Rip by:
 
Не забывайте говорить Спасибо. Не уходите с раздачи!   
Торрент: Зарегистрирован [08 фев 2018, 20:44] Для скачивания .torrent
необходима регистрация
Или скачать с помощью
MediaGet
Статус:
Проверен
 
.torrent скачан: 184 раз
Хэш: 4940a28469320c43f5bdb7d40f85672215bda104
Размер: 12.73 ГБ (13 665 155 760 байт)
Стать Автором раздачи
 
 
Раздал: 100 ГБ
Скачал: 0 байт
Ратио: Seed.
Сообщения: 42730
Зарегистрирован: 31 мар 2015, 18:04


  • Похожие торренты
    Ответы
    Просмотры
    Последнее сообщение

Вернуться в Отечественное кино

Ресурс не предоставляет электронные версии произведений, а занимается лишь коллекционированием и каталогизацией ссылок, присылаемых и публикуемых на форуме нашими читателями. Если вы являетесь правообладателем какого-либо представленного материала и не желаете чтобы ссылка на него находилась в нашем каталоге, свяжитесь с нами и мы незамедлительно удалим её. Файлы для обмена на трекере предоставлены пользователями сайта, и администрация не несёт ответственности за их содержание. Просьба не заливать файлы, защищенные авторскими правами, а также файлы нелегального содержания!
cron