Матильда (2017) BDRip 1080p от OlLanDGroup | Лицензия

 
 Статистика раздачи 
Размер: 7.2 ГБ   |  Зарегистрирован: 08 фев 2018, 20:47   |   .torrent скачан: 0 раз
Сидеров: 1  [ 0 байт/сек ]     Личеров: 0  [ 0 байт/сек ]  
  

Матильда (2017) BDRip 1080p от OlLanDGroup | Лицензия

Сообщение graf_t » 08 фев 2018, 20:47

Информация о фильме

Оригинальное название: Матильда
Год выпуска: 2017
Жанр: Драма, история, триллер
Выпущено: Россия, ТПО «РОК»
Режиссер: Алексей Учитель
В ролях: Михалина Ольшанска, Ларс Айдингер, Данила Козловский, Луиза Вольфрам, Ингеборга Дапкунайте, Сергей Гармаш, Евгений Миронов, Григорий Добрыгин, Галина Тюнина, Виталий Коваленко, Виталий Кищенко, Томас Остермайер, Сара Штерн, Гэ Ян, Сергей Малюгов, Степан Пивкин, Константин Желдин, Роман Шаляпин
О фильме: Будущее цесаревича Николая к этому моменту было предрешено. Уже в течение нескольких лет он был томим желанием заключить брачный союз с принцессой Алисой Гессенской и, после преодоления многочисленных препятствий, вопрос наконец был решен положительно. День, когда принцесса дала свое согласие на брак, будущий император назвал «Чудным и незабвенным в моей жизни». Никто не мог и предположить, что чувства и желания Николая кардинально изменятся в тот день, когда на сцене Мариинского театра своим ярчайшим талантом и красотой заблистает юная Матильда Кшесинская… И вот уже более ста лет взаимоотношения Николая Романова и балерины Кшесинской, которые сама Матильда называла «блаженством любви», не дают покоя историкам и ревнителям нравственности, желающим пролить свет достоверной информации на событие, невольно всколыхнувшее спокойный ход жизни императорской семьи. Так что это было - любовь или минутная слабость? Чтобы это узнать, окунитесь в атмосферу царской России конца девятнадцатого столетия...

Качество: BDRip (1080p)
Видео: MPEG-4 AVC, 7344 Кбит/с, 1920x804, 24 кадр/с
Аудио: АС3, 6 ch, 640 Кбит/с, DTS, 6 ch, 1509 Кбит/с
Размер: 7.20 ГБ
Продолжительность: 01:48:38
Язык: Русский
Озвучивание - (Лицензия)
Сохранены оригинальные чаптеры как на Blu-Ray.
x264 [info]: frame I:988 Avg QP:13.84 size:154396
x264 [info]: frame P:45780 Avg QP:16.82 size: 61794
x264 [info]: frame B:109674 Avg QP:17.96 size: 27352
x264 [info]: consecutive B-frames: 7.8% 6.8% 10.9% 28.5% 18.3% 17.7% 5.9% 1.2% 1.8% 0.4% 0.7%
x264 [info]: mb I I16..4: 13.6% 61.1% 25.3%
x264 [info]: mb P I16..4: 3.4% 26.1% 5.7% P16..4: 23.5% 22.5% 5.9% 0.7% 0.1% skip:12.0%
x264 [info]: mb B I16..4: 1.1% 5.5% 1.2% B16..8: 32.2% 19.4% 2.9% direct: 8.8% skip:28.9% L0:43.1% L1:44.4% BI:12.5%
x264 [info]: 8x8 transform intra:72.4% inter:54.7%
x264 [info]: direct mvs spatial:98.6% temporal:1.4%
x264 [info]: coded y,uvDC,uvAC intra: 77.3% 64.1% 35.2% inter: 30.9% 28.1% 8.3%
x264 [info]: i16 v,h,dc,p: 23% 18% 13% 46%
x264 [info]: i8 v,h,dc,ddl,ddr,vr,hd,vl,hu: 14% 10% 18% 8% 9% 10% 9% 10% 12%
x264 [info]: i4 v,h,dc,ddl,ddr,vr,hd,vl,hu: 33% 12% 28% 4% 5% 5% 5% 4% 4%
x264 [info]: i8c dc,h,v,p: 30% 36% 23% 10%
x264 [info]: Weighted P-Frames: Y:4.9% UV:2.6%
x264 [info]: ref P L0: 52.0% 11.0% 20.2% 8.1% 7.3% 1.3% 0.1%
x264 [info]: ref B L0: 76.4% 16.8% 5.3% 1.5%
x264 [info]: ref B L1: 92.6% 7.4%
x264 [info]: kb/s:7340.74


Общее
Уникальный идентификатор : 244135888360560991326116260823343100186 (0xB7AADC9E398A6B8FAEB5E3E4BB60F11A)
Полное имя : D:ЗагрузкиMatilda.2017.x264.BDRip.(1080p).OlLanDGroup.mkv
Формат : Matroska
Версия формата : Version 4 / Version 2
Размер файла : 7,20 Гбайт
Продолжительность : 1 ч. 48 м.
Общий поток : 9493 Кбит/сек
Название фильма : Матильда.2017.Rip by: ollan
Дата кодирования : UTC 2018-02-03 03:32:27
Программа кодирования : mkvmerge v6.5.0 ('Isn't she lovely') built on Oct 20 2013 12:50:05
Библиотека кодирования : libebml v1.3.0 + libmatroska v1.4.1
Attachements : Cover - Matilda.png

Видео
Идентификатор : 1
Формат : AVC
Формат/Информация : Advanced Video Codec
Профиль формата : [email protected]
Параметр CABAC формата : Да
Параметр ReFrames формата : 5 кадров
Идентификатор кодека : V_MPEG4/ISO/AVC
Продолжительность : 1 ч. 48 м.
Битрейт : 7344 Кбит/сек
Ширина : 1920 пикселей
Высота : 804 пикселя
Соотношение сторон : 2,40:1
Режим частоты кадров : Постоянный
Частота кадров : 24,000 кадра/сек
Цветовое пространство : YUV
Субдискретизация насыщенности : 4:2:0
Битовая глубина : 8 бит
Тип развёртки : Прогрессивная
Бит/(Пиксели*Кадры) : 0.198
Размер потока : 5,43 Гбайт (75%)
Библиотека кодирования : x264 core 146 r2538 121396c
Настройки программы : cabac=1 / ref=5 / deblock=1:-3:-3 / analyse=0x3:0x133 / me=umh / subme=11 / psy=1 / psy_rd=1.00:0.07 / mixed_ref=1 / me_range=64 / chroma_me=1 / trellis=2 / 8x8dct=1 / cqm=0 / deadzone=21,11 / fast_pskip=0 / chroma_qp_offset=-3 / threads=12 / lookahead_threads=3 / sliced_threads=0 / nr=0 / decimate=0 / interlaced=0 / bluray_compat=0 / constrained_intra=0 / bframes=10 / b_pyramid=2 / b_adapt=2 / b_bias=0 / direct=3 / weightb=1 / open_gop=0 / weightp=2 / keyint=240 / keyint_min=23 / scenecut=40 / intra_refresh=0 / rc_lookahead=40 / rc=2pass / mbtree=0 / bitrate=7344 / ratetol=1.0 / qcomp=0.60 / qpmin=0 / qpmax=69 / qpstep=4 / cplxblur=20.0 / qblur=0.5 / vbv_maxrate=50000 / vbv_bufsize=62500 / nal_hrd=none / filler=0 / ip_ratio=1.40 / pb_ratio=1.30 / aq=1:1.00
Язык : Russian
Default : Да
Forced : Нет

Аудио #1
Идентификатор : 2
Формат : AC-3
Формат/Информация : Audio Coding 3
Расширение режима : CM (complete main)
Параметр Endianness формата : Big
Идентификатор кодека : A_AC3
Продолжительность : 1 ч. 48 м.
Вид битрейта : Постоянный
Битрейт : 640 Кбит/сек
Каналы : 6 каналов
Расположение каналов : Front: L C R, Side: L R, LFE
Частота : 48,0 КГц
Частота кадров : 31,250 кадров/сек (1536 spf)
Метод сжатия : С потерями
Размер потока : 497 Мбайт (7%)
Заголовок : Лицензия
Язык : Russian
Default : Да
Forced : Нет

Аудио #2
Идентификатор : 3
Формат : DTS
Формат/Информация : Digital Theater Systems
Режим : 16
Параметр Endianness формата : Big
Идентификатор кодека : A_DTS
Продолжительность : 1 ч. 48 м.
Вид битрейта : Постоянный
Битрейт : 1509 Кбит/сек
Каналы : 6 каналов
Расположение каналов : Front: L C R, Side: L R, LFE
Частота : 48,0 КГц
Частота кадров : 93,750 кадра/сек (512 spf)
Битовая глубина : 24 бит
Метод сжатия : С потерями
Размер потока : 1,15 Гбайт (16%)
Заголовок : Лицензия
Язык : Russian
Default : Нет
Forced : Нет

Меню
00:00:00.000 : ru:Chapter 01
00:00:56.500 : ru:Chapter 02
00:11:23.291 : ru:Chapter 03
00:24:02.833 : ru:Chapter 04
00:39:26.000 : ru:Chapter 05
00:50:44.166 : ru:Chapter 06
01:03:31.500 : ru:Chapter 07
01:17:48.208 : ru:Chapter 08
01:31:13.875 : ru:Chapter 09







Релиз от: Rip by:
 
Не забывайте говорить Спасибо. Не уходите с раздачи!   
Торрент: Зарегистрирован [08 фев 2018, 20:47] Для скачивания .torrent
необходима регистрация
Или скачать с помощью
MediaGet
Статус:
Проверен
 
.torrent скачан: 0 раз
Хэш: 1001ccbffdc71eb588c0154fa045e264dab69b19
Размер: 7.2 ГБ (7 734 850 206 байт)
Стать Автором раздачи
 
 
Раздал: 100 ГБ
Скачал: 0 байт
Ратио: Seed.
Сообщения: 42730
Зарегистрирован: 31 мар 2015, 18:04


  • Похожие торренты
    Ответы
    Просмотры
    Последнее сообщение

Вернуться в Отечественное кино

Ресурс не предоставляет электронные версии произведений, а занимается лишь коллекционированием и каталогизацией ссылок, присылаемых и публикуемых на форуме нашими читателями. Если вы являетесь правообладателем какого-либо представленного материала и не желаете чтобы ссылка на него находилась в нашем каталоге, свяжитесь с нами и мы незамедлительно удалим её. Файлы для обмена на трекере предоставлены пользователями сайта, и администрация не несёт ответственности за их содержание. Просьба не заливать файлы, защищенные авторскими правами, а также файлы нелегального содержания!
cron