Матильда (2017) HDRip от Portablius | Лицензия

 
 Статистика раздачи 
Размер: 697.12 МБ   |  Зарегистрирован: 08 фев 2018, 20:48   |   .torrent скачан: 0 раз
Сидеров: 1  [ 0 байт/сек ]     Личеров: 0  [ 0 байт/сек ]  
  

Матильда (2017) HDRip от Portablius | Лицензия

Сообщение graf_t » 08 фев 2018, 20:48

Информация о фильме
Название: Матильда
Год выхода: 2017
Жанр: Драма, история, триллер
Режиссер: Алексей Учитель
В ролях: Михалина Ольшанска, Ларс Айдингер, Данила Козловский, Луизе Вольфрам, Ингеборга Дапкунайте, Сергей Гармаш, Евгений Миронов, Григорий Добрыгин, Галина Тюнина, Виталий Коваленко, Виталий Кищенко, Томас Остермайер, Сара Штерн, Гэ Ян, Сергей Малюгов, Степан Пивкин, Константин Желдин, Роман Шаляпин

О фильме: Последний русский император и балерина, утвердившая славу русского балета. Страсть, которая могла изменить русскую историю. Любовь, ставшая легендой. В жизни каждого человека случаются несколько дней, которые могут изменить её навсегда. Когда происходит самое главное. Ты оборачиваешься на голос любви. И делаешь выбор. Но если властитель империи полюбит танцовщицу, сводящую с ума своей красотой… Успенский собор, Кремль, Ходынское поле, царские дворцы, сцены Мариинского и Большого театров — там, где бьется сердце вечной России.


Страна: Россия
Студия: ТПО «РОК»
Продолжительность: 01:48:38
Перевод: Не Требуется
Субтитры: Нет

Файл
Кодек: XviD
Качество: HDRip
Видео: 688x288 (2.39:1), 24 fps, XviD build 73 ~759 kbps avg, 0.16 bit/pixel
Звук: 48 kHz, MPEG Layer 3, 2 ch, ~128.00 kbps avg

General
Complete name : Matilda.2017.HDRip.ot.Portablius.avi
Format : AVI
Format/Info : Audio Video Interleave
File size : 697 MiB
Duration : 1 h 48 min
Overall bit rate : 897 kb/s
Writing application : VirtualDubMod 1.5.10.3 | www.virtualdub-fr.org || (build 2550/release)
Writing library : VirtualDubMod build 2550/release

Video
ID : 0
Format : MPEG-4 Visual
Format profile : Advanced [email protected]
Format settings, BVOP : 1
Format settings, QPel : No
Format settings, GMC : No warppoints
Format settings, Matrix : Custom
Codec ID : XVID
Codec ID/Hint : XviD
Duration : 1 h 48 min
Bit rate : 760 kb/s
Width : 688 pixels
Height : 288 pixels
Display aspect ratio : 2.40:1
Frame rate : 24.000 FPS
Color space : YUV
Chroma subsampling : 4:2:0
Bit depth : 8 bits
Scan type : Progressive
Compression mode : Lossy
Bits/(Pixel*Frame) : 0.160
Stream size : 590 MiB (85%)
Writing library : XviD 73

Audio
ID : 1
Format : MPEG Audio
Format version : Version 1
Format profile : Layer 3
Codec ID : 55
Codec ID/Hint : MP3
Duration : 1 h 48 min
Bit rate mode : Constant
Bit rate : 128 kb/s
Channel(s) : 2 channels
Sampling rate : 48.0 kHz
Compression mode : Lossy
Stream size : 99.5 MiB (14%)
Alignment : Aligned on interleaves
Interleave, duration : 42 ms (1.00 video frame)
Interleave, preload duratio : 504 ms
Writing library : LAME3.99r
Encoding settings : -m s -V 4 -q 2 -lowpass 17 -b 128

 
Не забывайте говорить Спасибо. Не уходите с раздачи!   
Торрент: Зарегистрирован [08 фев 2018, 20:48] Для скачивания .torrent
необходима регистрация
Или скачать с помощью
MediaGet
Статус:
Проверен
 
.torrent скачан: 0 раз
Хэш: 9d9dea17b5a40fccadb7cf4c94d3cb1e6df5b994
Размер: 697.12 МБ (730 982 400 байт)
Стать Автором раздачи
 
 
Раздал: 100 ГБ
Скачал: 0 байт
Ратио: Seed.
Сообщения: 51296
Зарегистрирован: 31 мар 2015, 18:04


  • Похожие торренты
    Ответы
    Просмотры
    Последнее сообщение

Вернуться в Отечественное кино

Ресурс не предоставляет электронные версии произведений, а занимается лишь коллекционированием и каталогизацией ссылок, присылаемых и публикуемых на форуме нашими читателями. Если вы являетесь правообладателем какого-либо представленного материала и не желаете чтобы ссылка на него находилась в нашем каталоге, свяжитесь с нами и мы незамедлительно удалим её. Файлы для обмена на трекере предоставлены пользователями сайта, и администрация не несёт ответственности за их содержание. Просьба не заливать файлы, защищенные авторскими правами, а также файлы нелегального содержания!
cron