Матильда (2017) BDRip-AVC от ExKinoRay | Лицензия

 
 Статистика раздачи 
Размер: 1.66 ГБ   |  Зарегистрирован: 08 фев 2018, 20:48   |   .torrent скачан: 0 раз
Сидеров: 1  [ 0 байт/сек ]     Личеров: 0  [ 0 байт/сек ]  
  

Матильда (2017) BDRip-AVC от ExKinoRay | Лицензия

Сообщение graf_t » 08 фев 2018, 20:48

Информация о фильме
Название: Матильда
Год выпуска: 2017
Жанр: драма, история, триллер
Режиссер: Алексей Учитель
В ролях: Михалина Ольшанска (Матильда Кшесинская), Ларс Айдингер (император Николай II), Луиза Вольфрам (императрица Александра Федоровна (Аликс)), Данила Козловский (Воронцов), Ингеборга Дапкунайте (императрица Мария Федоровна (Минни)), Сергей Гармаш (император Александр III), Евгений Миронов (Иван Карлович, директор Императорских театров), Григорий Добрыгин (великий князь Андрей Владимирович), Галина Тюнина (Мария Павловна, жена князя Владимира), Виталий Коваленко (великий князь Владимир Александрович), Виталий Кищенко (Власов, начальник сыскной полиции), Томас Остермайер (Фишель, врач-психиатр)
Описание:
Последний русский император и балерина, утвердившая славу русского балета. Страсть, которая могла изменить русскую историю. Любовь, ставшая легендой. В жизни каждого человека случаются несколько дней, которые могут изменить её навсегда. Когда происходит самое главное. Ты оборачиваешься на голос любви. И делаешь выбор. Но если властитель империи полюбит танцовщицу, сводящую с ума своей красотой... Успенский собор, Кремль, Ходынское поле, царские дворцы, сцены Мариинского и Большого театров - там, где бьется сердце вечной России.

Страна: Россия
Студия: ТПО Рок
Продолжительность: 01:48:38
Перевод: Оригинальный | Лицензия
Файл
Формат: MKV
Качество: BDRip-AVC
Видео: MPEG-4 AVC, 1024x428 (2.40:1), 24.000 fps, ~1740 kbps avg, 0.165 bit/pixel
Аудио: 48 kHz, AC3 Dolby Digital, 3/2 (L,C,R,l,r) + LFE ch, ~448 kbps
Организация «Христианское государство — святая Русь» отправила в кинотеатры Москвы больше тысячи писем с требованием отказаться от проката фильма «Матильда», в котором их «чувства оскорблены» темой внебрачной связи Николая II. Также в «оскорблении чувств верующих» фильм обвинила депутат Госдумы Наталья Поклонская, попросившая Генпрокуратуру проверить «Матильду», а РПЦ заявила, что всё это «клевета и пошлость».
В разработке сценария принимали участие более 10 сценаристов, среди которых были американский и французский. Однако в итоге автором стал писатель Александр Терехов, успешно работающий в жанре мокьюментари, являющийся лауреатом премий «Большая книга» и «Национальный бестселлер».
Съёмки проходили в Мариинском театре, а также в Екатерининском, Александровском, Юсуповском и Елагиноостровском дворцах. Кроме того, для фильма были построены декорации Успенского собора, Дворца на Речном понтоне и интерьеры вагонов Императорского железнодорожного состава.
На создание костюмов было потрачено свыше 17 тонн ткани, а суммарно было изготовлено 5 тысяч нарядов.
[*]Музыку американского композитора Марко Белтрами для фильма записал расширенный состав Симфонического оркестра Мариинского театра под управлением Валерия Гергиева.

General
Unique ID : 209879592074637033055688016093509754811 (0x9DE556CFDCD5D55F86B698173B829FBB)
Complete name : D:Mat1lda.2017.BDRip.AVC.ExKinoRay.mkv
Format : Matroska
Format version : Version 2
File size : 1.66 GiB
Duration : 1 h 48 min
Overall bit rate : 2 188 kb/s
Movie name : MATILDA (2017) from ExKinoRay
Encoded date : UTC 2018-02-03 14:03:34
Writing application : mkvmerge v5.6.0 ('Kenya Kane') built on May 27 2012 16:44:04
Writing library : libebml v1.2.3 + libmatroska v1.3.0

Video
ID : 1
Format : AVC
Format/Info : Advanced Video Codec
Format profile : [email protected]
Format settings, CABAC : Yes
Format settings, ReFrames : 14 frames
Codec ID : V_MPEG4/ISO/AVC
Duration : 1 h 48 min
Bit rate : 1 740 kb/s
Width : 1 024 pixels
Height : 428 pixels
Display aspect ratio : 2.40:1
Frame rate mode : Constant
Frame rate : 24.000 FPS
Color space : YUV
Chroma subsampling : 4:2:0
Bit depth : 8 bits
Scan type : Progressive
Bits/(Pixel*Frame) : 0.165
Stream size : 1.29 GiB (78%)
Title : Enigma
Writing library : x264 core 152 r2851 ba24899
Encoding settings : cabac=1 / ref=14 / deblock=1:-1:-2 / analyse=0x3:0x113 / me=umh / subme=11 / psy=1 / psy_rd=1.05:0.10 / mixed_ref=1 / me_range=32 / chroma_me=1 / trellis=2 / 8x8dct=1 / cqm=0 / deadzone=21,11 / fast_pskip=0 / chroma_qp_offset=-3 / threads=12 / lookahead_threads=3 / sliced_threads=0 / nr=0 / decimate=0 / interlaced=0 / bluray_compat=0 / constrained_intra=0 / bframes=14 / b_pyramid=2 / b_adapt=2 / b_bias=0 / direct=3 / weightb=1 / open_gop=0 / weightp=2 / keyint=240 / keyint_min=24 / scenecut=40 / intra_refresh=0 / rc_lookahead=40 / rc=2pass / mbtree=0 / bitrate=1740 / ratetol=1.0 / qcomp=0.65 / qpmin=0 / qpmax=51 / qpstep=4 / cplxblur=20.0 / qblur=0.5 / vbv_maxrate=50000 / vbv_bufsize=62500 / nal_hrd=none / filler=0 / ip_ratio=1.40 / pb_ratio=1.30 / aq=3:0.80
Language : English
Default : Yes
Forced : No
Color range : Limited
Color primaries : BT.709
Transfer characteristics : BT.709
Matrix coefficients : BT.709

Audio
ID : 2
Format : AC-3
Format/Info : Audio Coding 3
Mode extension : CM (complete main)
Format settings, Endianness : Big
Codec ID : A_AC3
Duration : 1 h 48 min
Bit rate mode : Constant
Bit rate : 448 kb/s
Channel(s) : 6 channels
Channel positions : Front: L C R, Side: L R, LFE
Sampling rate : 48.0 kHz
Frame rate : 31.250 FPS (1536 spf)
Compression mode : Lossy
Stream size : 348 MiB (20%)
Title : Licensia
Language : Russian
Default : Yes
Forced : No

Menu
00:00:00.000 : :Chapter 01
00:00:56.500 : :Chapter 02
00:11:23.291 : :Chapter 03
00:24:02.833 : :Chapter 04
00:39:26.000 : :Chapter 05
00:50:44.166 : :Chapter 06
01:03:31.500 : :Chapter 07
01:17:48.208 : :Chapter 08
01:31:13.875 : :Chapter 09





Релиз от:

Автор релиза:
 
Не забывайте говорить Спасибо. Не уходите с раздачи!   
Торрент: Зарегистрирован [08 фев 2018, 20:48] Для скачивания .torrent
необходима регистрация
Или скачать с помощью
MediaGet
Статус:
Проверен
 
.torrent скачан: 0 раз
Хэш: 646e1858e4e70d8ff2fab61957751d8462e0e745
Размер: 1.66 ГБ (1 782 443 005 байт)
Стать Автором раздачи
 
 
Раздал: 100 ГБ
Скачал: 0 байт
Ратио: Seed.
Сообщения: 42709
Зарегистрирован: 31 мар 2015, 18:04


  • Похожие торренты
    Ответы
    Просмотры
    Последнее сообщение

Вернуться в Отечественное кино

Ресурс не предоставляет электронные версии произведений, а занимается лишь коллекционированием и каталогизацией ссылок, присылаемых и публикуемых на форуме нашими читателями. Если вы являетесь правообладателем какого-либо представленного материала и не желаете чтобы ссылка на него находилась в нашем каталоге, свяжитесь с нами и мы незамедлительно удалим её. Файлы для обмена на трекере предоставлены пользователями сайта, и администрация не несёт ответственности за их содержание. Просьба не заливать файлы, защищенные авторскими правами, а также файлы нелегального содержания!
cron