2018 ITTF World Tour Platinum Qatar Open / Личные финалы / Eurosport HD [11.03.2018, Настольный теннис, HDTV/1080i, TS/H.264, RU/EN]

 
 Статистика раздачи 
Размер: 2.83 ГБ   |  Зарегистрирован: 13 мар 2018, 18:52   |   .torrent скачан: 0 раз
Сидеров: 1  [ 0 байт/сек ]     Личеров: 0  [ 0 байт/сек ]  
  

2018 ITTF World Tour Platinum Qatar Open / Личные финалы / Eurosport HD [11.03.2018, Настольный теннис, HDTV/1080i, TS/H.264, RU/EN]

Сообщение Nakazhu » 13 мар 2018, 18:52

2018 ITTF World Tour Platinum Qatar Open
Год выпуска: 11.03.2018
Вид спорта: Настольный теннис
Комментарий: Профессиональный
Язык комментариев: Русский (Анастасия Кольцова) / Английский
Описание: 2018 ITTF World Tour Platinum Qatar Open. Личные финалы
Доп. информация: Оба матча сокращены
Автор рипа: Настольный Теннисист
Качество: HDTV
Формат: TS
Видео кодек: AVC
Аудио кодек: MP2
Видео: MPEG4 Video (H264) 1920x1080 (16:9) 25fps 8258kbps
Аудио: MPEG Audio 48000Hz stereo 192kbps
Код: Выделить всё
General
ID                                       : 1 (0x1)
Complete name                            : F:\Table Tennis\2018 ITTF WORDL TOUR QATAR OPEN EUROSPORT HD\01 WS F.ts
Format                                   : MPEG-TS
File size                                : 1.35 GiB
Duration                                 : 21 min 11 s
Overall bit rate mode                    : Variable
Overall bit rate                         : 9 096 kb/s
Video
ID                                       : 301 (0x12D)
Menu ID                                  : 26001 (0x6591)
Format                                   : AVC
Format/Info                              : Advanced Video Codec
Format profile                           : [email protected]
Format settings, CABAC                   : Yes
Format settings, RefFrames               : 4 frames
Format settings, GOP                     : M=4, N=28
Codec ID                                 : 27
Duration                                 : 21 min 11 s
Bit rate                                 : 8 258 kb/s
Width                                    : 1 920 pixels
Height                                   : 1 080 pixels
Display aspect ratio                     : 16:9
Frame rate                               : 25.000 FPS
Standard                                 : Component
Color space                              : YUV
Chroma subsampling                       : 4:2:0
Bit depth                                : 8 bits
Scan type                                : Interlaced
Scan type, store method                  : Separated fields
Scan order                               : Top Field First
Bits/(Pixel*Frame)                       : 0.159
Stream size                              : 1.22 GiB (91%)
Color range                              : Limited
Color primaries                          : BT.709
Transfer characteristics                 : BT.709
Matrix coefficients                      : BT.709
Audio #1
ID                                       : 401 (0x191)
Menu ID                                  : 26001 (0x6591)
Format                                   : MPEG Audio
Format version                           : Version 1
Format profile                           : Layer 2
Codec ID                                 : 3
Duration                                 : 21 min 11 s
Bit rate mode                            : Constant
Bit rate                                 : 192 kb/s
Channel(s)                               : 2 channels
Sampling rate                            : 48.0 kHz
Compression mode                         : Lossy
Delay relative to video                  : -40 ms
Stream size                              : 29.1 MiB (2%)
Language                                 : Russian
Audio #2
ID                                       : 402 (0x192)
Menu ID                                  : 26001 (0x6591)
Format                                   : MPEG Audio
Format version                           : Version 1
Format profile                           : Layer 2
Codec ID                                 : 3
Duration                                 : 21 min 11 s
Bit rate mode                            : Constant
Bit rate                                 : 192 kb/s
Channel(s)                               : 2 channels
Sampling rate                            : 48.0 kHz
Compression mode                         : Lossy
Delay relative to video                  : -40 ms
Stream size                              : 29.1 MiB (2%)
Language                                 : English
ЖЕНЩИНЫ. ФИНАЛ

WANG Manyu - LIU Shiwen
МУЖЧИНЫ. ФИНАЛ
FAN Zhendong - CALDERANO Hugo
Общая продолжительность: 00:44:12
ЖЕНЩИНЫ. ФИНАЛ
WANG Manyu - LIU Shiwen - 00:21:11
МУЖЧИНЫ. ФИНАЛ
FAN Zhendong - CALDERANO Hugo - 00:23:01
ЖЕНЩИНЫ. ФИНАЛ

WANG Manyu - LIU Shiwen
(2-4) 11:8, 12:10, 9:11, 6:11, 5:11, 6:11
МУЖЧИНЫ. ФИНАЛ
FAN Zhendong - CALDERANO Hugo
(4-0) 13:11, 12:10, 11:7, 11:7
 
Не забывайте говорить Спасибо. Не уходите с раздачи!   
Торрент: Зарегистрирован [13 мар 2018, 18:52] Для скачивания .torrent
необходима регистрация
Или скачать с помощью
MediaGet
Статус:
Проверен
 
.torrent скачан: 0 раз
Хэш: fd28273f13956afd5c87254b47861256233833e8
Размер: 2.83 ГБ (3 042 106 396 байт)
Стать Автором раздачи
 
 
Раздал: 0 байт
Скачал: 0 байт
Ратио: Inf.
Сообщения: 436592
Зарегистрирован: 17 апр 2014, 13:57


  • Похожие торренты
    Ответы
    Просмотры
    Последнее сообщение

Вернуться в Бадминтон/Настольный теннис

Ресурс не предоставляет электронные версии произведений, а занимается лишь коллекционированием и каталогизацией ссылок, присылаемых и публикуемых на форуме нашими читателями. Если вы являетесь правообладателем какого-либо представленного материала и не желаете чтобы ссылка на него находилась в нашем каталоге, свяжитесь с нами и мы незамедлительно удалим её. Файлы для обмена на трекере предоставлены пользователями сайта, и администрация не несёт ответственности за их содержание. Просьба не заливать файлы, защищенные авторскими правами, а также файлы нелегального содержания!
cron