Черепашки ниндзя. Новые приключения: Трибунал ниндзя / Teenage Mutant Ninja Turtles: Ninja Tribunal (Lost Season) / Сезон: 5 / Серии: 3 из 12 (Рой Бёрдин / Roy Burdine) [2003, приключения, экшн, DVDRip-AVC] MVO + Original + Sub (Rus)

 
 Статистика раздачи 
Размер: 915.24 МБ   |  Зарегистрирован: 16 апр 2018, 14:43   |   .torrent скачан: 0 раз
Сидеров: 1  [ 0 байт/сек ]     Личеров: 0  [ 0 байт/сек ]  
  

Черепашки ниндзя. Новые приключения: Трибунал ниндзя / Teenage Mutant Ninja Turtles: Ninja Tribunal (Lost Season) / Сезон: 5 / Серии: 3 из 12 (Рой Бёрдин / Roy Burdine) [2003, приключения, экшн, DVDRip-AVC] MVO + Original + Sub (Rus)

Сообщение Nakazhu » 16 апр 2018, 14:43

Трибунал ниндзя

Страна:
Год выпуска: 2003
Жанр: экшн, приключения
Тип: TV
Продолжительность: ~22 мин. (серия)
Режиссер: Рой Бёрдин
Студия:

Многоголосая авторская озвучка от:

Yu, Leonhart, Chirick, Daniel(муж.)
Shira, VereneyR (жен.)

В ролях: Michael Sinterniklaas, Вейн Грэйсон, Sam Riegel, Фрэнк Фрэнксон, Даррен Данстэн, Вероника Тейлор, Грег Кэри, Дэн Грин, Марк Томпсон, Скотти Рэй
Описание: Сюжет пятого сезона строится вокруг назревающей угрозы исходящей от новой версии Шредера, заклятого врага Ороку Саки. Черепах призывают в трибунал ниндзя (группа воинов, целью которых является победа над темным "Шредером" Тенгу), чтобы они могли пройти ряд тренировок и подготовиться к битве со Шредером. Черепаший арсенал пополняется новым оружием и способностями. Они обучаются направлять энергию ци в мощные снаряды и налаживают контакт со своим животным духом.
Данный сезон считается "утраченным" из-за задержек в выходе и постоянном переносе. Он является последним вышедшим сезоном, использующим оригинальные формат, анимацию и дизайн персонажей. А так же завершает сюжетную линию сериала.
Качество: DVDRip-AVC
Тип релиза: без хардсаба
Формат видео: MKV
Видео: AVC, 8 bit, 706x540, ~1600 kbps, 23,976 fps
Аудио:
1: AAC, ~200 kbps, 48.0 KHz, stereo
2: AC3, 192 kbps, 48.0 KHz, stereo
Субтитры:
SRT, (полные);
Перевод: LRN
Синхронизация: aivaz
ВСЁ В ОДНОМ MKV КОНТЕЙНЕРЕ[/spoiler]
Код: Выделить всё
Общее
Уникальный идентификатор                 : 111675690639285310821802779064815521656 (0x5403F4A68ACE7132D876E8539DE70F78)
Полное имя                               : D:\Раздача\TMNT 2003 сезон 5\[AniPlague] ЧН. Трибунал ниндзя - серия 01 - Длань богов.mkv
Формат                                   : MatroskaДлань богов
Версия формата                           : Version 4 / Version 2
Размер файла                             : 306 Мбайт
Продолжительность                        : 21 м. 16 с.
Общий поток                              : 2011 Кбит/сек
Название фильма                          : [AniPlague] ЧН. Трибунал ниндзя - серия 01 - Длань богов
Дата кодирования                         : UTC 2018-04-16 07:35:55
Программа кодирования                    : mkvmerge v21.0.0 ('Tardigrades Will Inherit The Earth') 64-bit
Библиотека кодирования                   : libebml v1.3.5 + libmatroska v1.4.8
Видео
Идентификатор                            : 1
Формат                                   : AVC
Формат/Информация                        : Advanced Video Codec
Профиль формата                          : [email protected]
Настройки формата                        : CABAC / 16 Ref Frames
Параметр CABAC формата                   : Да
Параметр RefFrames формата               : 16 кадров
Идентификатор кодека                     : V_MPEG4/ISO/AVC
Продолжительность                        : 21 м. 16 с.
Битрейт                                  : 1597 Кбит/сек
Ширина                                   : 706 пикселей
Высота                                   : 540 пикселей
Соотношение сторон                       : 4:3
Режим частоты кадров                     : Постоянный
Частота кадров                           : 23,976 (24000/1001) кадра/сек
Цветовое пространство                    : YUV
Субдискретизация насыщенности            : 4:2:0
Битовая глубина                          : 8 бит
Тип развёртки                            : Прогрессивная
Бит/(Пиксели*Кадры)                      : 0.175
Размер потока                            : 243 Мбайт (79%)
Заголовок                                : Длань богов
Библиотека кодирования                   : x264 core 155 r2901 7d0ff22
Настройки программы                      : cabac=1 / ref=16 / deblock=1:1:1 / analyse=0x3:0x113 / me=hex / subme=8 / psy=1 / psy_rd=0.40:0.00 / mixed_ref=1 / me_range=16 / chroma_me=1 / trellis=2 / 8x8dct=1 / cqm=0 / deadzone=21,11 / fast_pskip=1 / chroma_qp_offset=-2 / threads=12 / lookahead_threads=2 / sliced_threads=0 / nr=0 / decimate=1 / interlaced=0 / bluray_compat=0 / constrained_intra=0 / bframes=5 / b_pyramid=2 / b_adapt=1 / b_bias=0 / direct=3 / weightb=1 / open_gop=0 / weightp=2 / keyint=250 / keyint_min=23 / scenecut=40 / intra_refresh=0 / rc_lookahead=50 / rc=crf / mbtree=1 / crf=18.0 / qcomp=0.60 / qpmin=0 / qpmax=69 / qpstep=4 / ip_ratio=1.40 / aq=1:0.60
Язык                                     : English
Default                                  : Да
Forced                                   : Да
Аудио #1
Идентификатор                            : 2
Формат                                   : AAC
Формат/Информация                        : Advanced Audio Codec
Профиль формата                          : LC
Идентификатор кодека                     : A_AAC-2
Продолжительность                        : 21 м. 16 с.
Битрейт                                  : 219 Кбит/сек
Каналы                                   : 2 канала
Расположение каналов                     : Front: L R
Частота                                  : 48,0 КГц
Частота кадров                           : 46,875 кадров/сек (1024 SPF)
Метод сжатия                             : С потерями
Размер потока                            : 33,4 Мбайт (11%)
Заголовок                                : AniPlague
Язык                                     : Russian
Default                                  : Да
Forced                                   : Да
Аудио #2
Идентификатор                            : 3
Формат                                   : AC-3
Формат/Информация                        : Audio Coding 3
Идентификатор кодека                     : A_AC3
Продолжительность                        : 21 м. 16 с.
Вид битрейта                             : Постоянный
Битрейт                                  : 192 Кбит/сек
Каналы                                   : 2 канала
Расположение каналов                     : Front: L R
Частота                                  : 48,0 КГц
Частота кадров                           : 31,250 кадров/сек (1536 SPF)
Битовая глубина                          : 16 бит
Метод сжатия                             : С потерями
Размер потока                            : 29,2 Мбайт (10%)
Заголовок                                : Original
Язык                                     : English
ServiceKind/String                       : Complete Main
Default                                  : Нет
Forced                                   : Нет
Текст
Идентификатор                            : 4
Формат                                   : UTF-8
Идентификатор кодека                     : S_TEXT/UTF8
Идентификатор кодека/Информация          : UTF-8 Plain Text
Продолжительность                        : 20 м. 41 с.
Битрейт                                  : 78 бит/сек
ElementCount                             : 210
Размер потока                            : 11,9 Кбайт (0%)
Заголовок                                : LRN
Язык                                     : Russian
Default                                  : Нет
Forced                                   : Нет
Меню
00:00:00.000                             : en:Chapter 01
00:02:16.002                             : en:Chapter 02
00:06:48.107                             : en:Chapter 03
00:12:34.520                             : en:Chapter 04
00:16:38.430                             : en:Chapter 05
1. Длань богов
2. Демоны и драконы
3. Легенда о пяти драконах

4.
...
12.
http://rutracker.org/forum/viewtopic.php?t=4085500 - Правильный кроп и аспект, собственный рип лучшего качества, альтернативная озвучка, большее кол-во серий
http://rutracker.org/forum/viewtopic.php?t=2993252 - Правильный кроп и аспект, AVC лучшего качества, альтернативная озвучка, большее кол-во серий
http://rutracker.org/forum/viewtopic.php?t=1832430 - Правильный кроп и аспект, AVC лучшего качества, альтернативная озвучка
http://rutracker.org/forum/viewtopic.php?t=3641076 - Правильный кроп и аспект, AVC лучшего качества, альтернативная озвучка (или вообще ее наличие)
http://rutracker.org/forum/viewtopic.php?t=452468 - Правильный кроп и аспект, AVC лучшего качества, альтернативная озвучка
http://rutracker.org/forum/viewtopic.php?t=1654380 - Правильный кроп и аспект, AVC лучшего качества, альтернативная озвучка
Отдельная благодарность lex2085 за предоставленный исходник сезона
 
Не забывайте говорить Спасибо. Не уходите с раздачи!   
Торрент: Зарегистрирован [16 апр 2018, 14:43] Для скачивания .torrent
необходима регистрация
Или скачать с помощью
MediaGet
Статус:
Проверен
 
.torrent скачан: 0 раз
Хэш: 287e6e9e1a7c75e1b9b05ea32d5eada6c167c535
Размер: 915.24 МБ (959 695 744 байт)
Стать Автором раздачи
 
 
Раздал: 0 байт
Скачал: 0 байт
Ратио: Inf.
Сообщения: 440248
Зарегистрирован: 17 апр 2014, 13:57


  • Похожие торренты
    Ответы
    Просмотры
    Последнее сообщение

Вернуться в Мультсериалы

Ресурс не предоставляет электронные версии произведений, а занимается лишь коллекционированием и каталогизацией ссылок, присылаемых и публикуемых на форуме нашими читателями. Если вы являетесь правообладателем какого-либо представленного материала и не желаете чтобы ссылка на него находилась в нашем каталоге, свяжитесь с нами и мы незамедлительно удалим её. Файлы для обмена на трекере предоставлены пользователями сайта, и администрация не несёт ответственности за их содержание. Просьба не заливать файлы, защищенные авторскими правами, а также файлы нелегального содержания!
cron