Двенадцатая ночь / Twelfth Night (Tim Carroll) [2012, UK, Comedy, WEB-DL, AVC] Shakespeare's Globe

 
 Статистика раздачи 
Размер: 3 ГБ   |  Зарегистрирован: 01 май 2018, 11:32   |   .torrent скачан: 0 раз
Сидеров: 1  [ 0 байт/сек ]     Личеров: 0  [ 0 байт/сек ]  
  

Двенадцатая ночь / Twelfth Night (Tim Carroll) [2012, UK, Comedy, WEB-DL, AVC] Shakespeare's Globe

Сообщение Nakazhu » 01 май 2018, 11:32

Двенадцатая ночь / Twelfth Night
Название театра: Shakespeare's Globe
Страна: UK
Жанр: Comedy
Год выпуска: 2012
Продолжительность: 02:55:37
Перевод: Отсутствует
Субтитры: нет
Оригинальная аудиодорожка: английский
Режиссёр: Tim Carroll
В ролях: Maria — Paul Chahidi
Sebastian — Samuel Barnett
Orsino — Liam Brennan
Antonio — John Paul Connolly
Fabian — James Garnon
Feste — Peter Hamilton Dyer
Sir Toby Belch — Colin Hurley
Olivia — Mark Rylance
Priest/Valentine — Ian Drysdale
Viola — Johnny Flynn
Malvolio — Stephen Fry
Captain — Jethro Skinner
Curio — Ben Thompson
Sir Andrew Aguecheek — Roger Lloyd Pack
Описание:
In the household of Olivia, two campaigns are being quietly waged - one by the lovesick lord Orsino against the heart of the indifferent Olivia; the other by an alliance of servants and hangers-on against the high-handedness of her steward, the pompous Malvolio. When Orsino engages the cross-dressed Viola to plead with Olivia on his behalf, a bittersweet chain of events follows.
Близнецы — брат и сестра Себастьян и Виола, потерпев кораблекрушение, оказались в Иллирии и потеряли друг друга. Виола, переодевшись в мужскую одежду, появляется при дворе правителя Иллирии герцога Орсино.
Доп. информация:
Filled with a cast of unforgettable characters, Twelfth Night combines cruelty with high comedy and the pangs of unrequited love with some of the subtlest poetry and most exquisite songs Shakespeare ever wrote.
The Globe revisits its award-winning Twelfth Night of 2002 with an all-male Original Practices production, exploring clothing, music, dance and settings possible in the Globe of around 1601.
Mark Rylance reprises his performance of Olivia in Twelfth Night, 10 years after its original premiere at Middle Temple Hall and The Globe.
Качество видео: WEB-DL
Формат видео: MP4
Видео: AVC, 1080p, 16:9, 25 FPS, ~2500 kbits
Аудио: English, AAC, 48kHz, ~256 kbits, stereo
General
Complete name : Twelfth Night.mp4
Format : MPEG-4
Format profile : Base Media / Version 2
Codec ID : mp42 (mp42/mp41)
File size : 3.00 GiB
Duration : 2 h 55 min
Overall bit rate mode : Variable
Overall bit rate : 2 448 kb/s
Encoded date : UTC 2014-06-18 18:40:23
Tagged date : UTC 2014-06-18 18:43:53
TIM : 00:00:00:00
TSC : 25
TSZ : 1
Video
ID : 1
Format : AVC
Format/Info : Advanced Video Codec
Format profile : [email protected]
Format settings : CABAC / 3 Ref Frames
Format settings, CABAC : Yes
Format settings, ReFrames : 3 frames
Codec ID : avc1
Codec ID/Info : Advanced Video Coding
Duration : 2 h 55 min
Source duration : 2 h 55 min
Bit rate mode : Variable
Bit rate : 2 191 kb/s
Maximum bit rate : 2 500 kb/s
Width : 1 920 pixels
Height : 1 080 pixels
Display aspect ratio : 16:9
Frame rate mode : Constant
Frame rate : 25.000 FPS
Standard : PAL
Color space : YUV
Chroma subsampling : 4:2:0
Bit depth : 8 bits
Scan type : Progressive
Bits/(Pixel*Frame) : 0.042
Stream size : 2.69 GiB (89%)
Source stream size : 2.69 GiB (89%)
Language : English
Encoded date : UTC 2014-06-18 18:40:23
Tagged date : UTC 2014-06-18 18:40:23
Color range : Limited
Audio
ID : 2
Format : AAC
Format/Info : Advanced Audio Codec
Format profile : LC
Codec ID : mp4a-40-2
Duration : 2 h 55 min
Source duration : 2 h 55 min
Bit rate mode : Variable
Bit rate : 254 kb/s
Maximum bit rate : 368 kb/s
Channel(s) : 2 channels
Channel positions : Front: L R
Sampling rate : 44.1 kHz
Frame rate : 43.066 FPS (1024 SPF)
Compression mode : Lossy
Stream size : 319 MiB (10%)
Source stream size : 319 MiB (10%)
Language : English
Encoded date : UTC 2014-06-18 18:40:23
Tagged date : UTC 2014-06-18 18:40:23


 
Не забывайте говорить Спасибо. Не уходите с раздачи!   
Торрент: Зарегистрирован [01 май 2018, 11:32] Для скачивания .torrent
необходима регистрация
Или скачать с помощью
MediaGet
Статус:
Проверен
 
.torrent скачан: 0 раз
Хэш: db535059a6bbbb7b45278a63c210a24ba2c7b342
Размер: 3 ГБ (3 223 907 607 байт)
Стать Автором раздачи
 
 
Раздал: 0 байт
Скачал: 0 байт
Ратио: Inf.
Сообщения: 456234
Зарегистрирован: 17 апр 2014, 13:57


  • Похожие торренты
    Ответы
    Просмотры
    Последнее сообщение

Вернуться в Театр

Ресурс не предоставляет электронные версии произведений, а занимается лишь коллекционированием и каталогизацией ссылок, присылаемых и публикуемых на форуме нашими читателями. Если вы являетесь правообладателем какого-либо представленного материала и не желаете чтобы ссылка на него находилась в нашем каталоге, свяжитесь с нами и мы незамедлительно удалим её. Файлы для обмена на трекере предоставлены пользователями сайта, и администрация не несёт ответственности за их содержание. Просьба не заливать файлы, защищенные авторскими правами, а также файлы нелегального содержания!
cron