Чёрно-белая любовь / Siyah Beyaz Aşk / Серии: 21-30 (32) (Ясин Услу / Yasin Uslu) [2017-2018, Турция, Драма, WEBRip (720p)] (VO Gaydarghy)

 
 Статистика раздачи 
Размер: 21.21 ГБ   |  Зарегистрирован: 16 май 2018, 18:36   |   .torrent скачан: 0 раз
Сидеров: 1  [ 0 байт/сек ]     Личеров: 0  [ 0 байт/сек ]  
  

Чёрно-белая любовь / Siyah Beyaz Aşk / Серии: 21-30 (32) (Ясин Услу / Yasin Uslu) [2017-2018, Турция, Драма, WEBRip (720p)] (VO Gaydarghy)

Сообщение Nakazhu » 16 май 2018, 18:36

Чёрно-белая любовь / Siyah Beyaz Aşk
Год выпуска: 2017-2018
Страна: Турция
Производство: D Productions
Жанр: Драма
Серии (количество): 21-30 (32)
Продолжительность: ~ 02:24:00 / каждая серия
Перевод: любительский одноголосый закадровый (Анастасия Гайдаржи)
Субтитры: отсутствуют
Режиссёр: Ясин Услу / Yasin Uslu
В ролях: Ибрагим Челикколь / İbrahim Çelikkol – Ферхат
Бирдже Акалай / Birce Akalay – Аслы
Мухаммед Узунер / Muhammet Uzuner – Намык
Арзу Гамзе Кылынч / Arzu Gamze Kılınç
Описание: Ферхат – тот, кто забыл о том, как нужно любить, тот кто может убивать не моргнув глазом, когда это необходимо. А Аслы девушка сердобольная, она врач, посвятившийся себя спасению людей… И в почерневшее сердце мужчины попадает женщина, поклявшаяся распустить в нем цветы. Отбирающая жизнь рука, встречается с рукой, которая дает жизнь. Любовь делает невозможное возможным. Потому любовь все зло притягивает на сторону добра, меняет, излечивает! Ферхату необходим врач, чтобы вылечить одного человека. Именно поэтому его пути пересекаются с доктором Аслы, которая посвятила себя лечению людей. Они молодые люди, которые никогда в жизни не смогут быть вместе, абсолютно разные, как черное и белое. Аслы похищают и насильно привозят в одно поместье, где она должна лечить раненого мужчину. Пытаясь спасти ему жизнь, Аслы видит то, что не должна была видеть. Она становится свидетелем того, как дядя Ферхата Намык совершает убийство, а ведь она считала его добрым ангелом. Отныне Аслы не должна жить. Намык приказывает убить ее. Ферхат уже собирался убить ее, но решает дать ей один шанс. Но с одним условием… Жизнь Аслы изменится из-за этого условия. Это «условие» в корне изменит жизни и Аслы, и Ферхата.
Качество: WEBRip (720р)
Формат: MP4
Видео кодек: H.264
Аудио кодек: AAC
Видео: MPEG4 Video (H264) 1280x720 29.97fps 1968kbps
Аудио: AAC 44100Hz stereo 192kbps
Реклама:
Отсутствует
General
Complete name : D:\Cherno.Belaya.Lubov.2018.L1.WEBRip720p\Cherno.Belaya.Lubov.s01.e21.2018.L1.WEBRip720p.MP4
Format : MPEG-4
Format profile : Base Media
Codec ID : isom (isom/iso2/avc1/mp41)
File size : 2.12 GiB
Duration : 2 h 19 min
Overall bit rate : 2 168 kb/s
Writing application : Lavf57.83.100
Video
ID : 1
Format : AVC
Format/Info : Advanced Video Codec
Format profile : [email protected]
Format settings, CABAC : Yes
Format settings, ReFrames : 4 frames
Codec ID : avc1
Codec ID/Info : Advanced Video Coding
Duration : 2 h 19 min
Bit rate : 1 980 kb/s
Width : 1 280 pixels
Height : 720 pixels
Display aspect ratio : 16:9
Frame rate mode : Constant
Frame rate : 29.970 (30000/1001) FPS
Color space : YUV
Chroma subsampling : 4:2:0
Bit depth : 8 bits
Scan type : Progressive
Bits/(Pixel*Frame) : 0.072
Stream size : 1.92 GiB (91%)
Writing library : x264 core 148
Encoding settings : cabac=1 / ref=2 / deblock=1:0:0 / analyse=0x3:0x113 / me=hex / subme=6 / psy=1 / psy_rd=1.00:0.00 / mixed_ref=1 / me_range=16 / chroma_me=1 / trellis=1 / 8x8dct=1 / cqm=0 / deadzone=21,11 / fast_pskip=1 / chroma_qp_offset=-2 / threads=6 / lookahead_threads=1 / sliced_threads=0 / nr=0 / decimate=1 / interlaced=0 / bluray_compat=0 / constrained_intra=0 / bframes=3 / b_pyramid=2 / b_adapt=1 / b_bias=0 / direct=1 / weightb=1 / open_gop=0 / weightp=1 / keyint=250 / keyint_min=25 / scenecut=40 / intra_refresh=0 / rc_lookahead=30 / rc=2pass / mbtree=1 / bitrate=1980 / ratetol=1.0 / qcomp=0.60 / qpmin=0 / qpmax=69 / qpstep=4 / cplxblur=20.0 / qblur=0.5 / vbv_maxrate=1980 / vbv_bufsize=3960 / nal_hrd=none / filler=0 / ip_ratio=1.40 / aq=1:1.00
Audio
ID : 2
Format : AAC
Format/Info : Advanced Audio Codec
Format profile : LC
Codec ID : 40
Duration : 2 h 19 min
Bit rate mode : Constant
Bit rate : 192 kb/s
Channel(s) : 2 channels
Channel positions : Front: L R
Sampling rate : 44.1 kHz
Frame rate : 43.066 FPS (1024 spf)
Compression mode : Lossy
Stream size : 192 MiB (9%)
Default : Yes
Alternate group : 1

Предыдущие и альтернативные раздачи
 
Не забывайте говорить Спасибо. Не уходите с раздачи!   
Торрент: Зарегистрирован [16 май 2018, 18:36] Для скачивания .torrent
необходима регистрация
Или скачать с помощью
MediaGet
Статус:
Проверен
 
.torrent скачан: 0 раз
Хэш: dc9e8ece506f7433f82e2265d6cde7947cbbc69d
Размер: 21.21 ГБ (22 772 077 449 байт)
Стать Автором раздачи
 
 
Раздал: 0 байт
Скачал: 0 байт
Ратио: Inf.
Сообщения: 456234
Зарегистрирован: 17 апр 2014, 13:57


  • Похожие торренты
    Ответы
    Просмотры
    Последнее сообщение

Вернуться в Турецкие сериалы

Ресурс не предоставляет электронные версии произведений, а занимается лишь коллекционированием и каталогизацией ссылок, присылаемых и публикуемых на форуме нашими читателями. Если вы являетесь правообладателем какого-либо представленного материала и не желаете чтобы ссылка на него находилась в нашем каталоге, свяжитесь с нами и мы незамедлительно удалим её. Файлы для обмена на трекере предоставлены пользователями сайта, и администрация не несёт ответственности за их содержание. Просьба не заливать файлы, защищенные авторскими правами, а также файлы нелегального содержания!
cron